osu file format v4

[General]
AudioFilename: 15 - Shonen Heart.mp3
AudioLeadIn: 0
AudioHash: b6a1dfa2f5de5acb8a0b1ac59aa4cfda
PreviewTime: 56022
Countdown: 1
SampleSet: Normal

[Metadata]
Title:Shonen Heart
Artist:Home Made Kazoku
Creator:ZZT the Fifth
Version:Normal

[Difficulty]
HPDrainRate:3
CircleSize:5
OverallDifficulty:3
SliderMultiplier: 1.4
SliderTickRate: 2

[Events]
//Background and Video events
//Break Periods
2,32168,47632
2,73089,88299
2,113756,128713
//Storyboard Layer 0 (Background)
//Storyboard Layer 1 (Failing)
//Storyboard Layer 2 (Passing)
//Storyboard Layer 3 (Foreground)
//Storyboard Sound Samples
//Background Colour Transformations
3,0,163,162,255

[TimingPoints]
16260,506.542845082313,4,1,1,100
128254,506.756756756757,4,1,1,100
145736,506.542845082313,4,1,1,100

[HitObjects]
192,96,16259,5,0
320,96,16765,1,0
432,96,17272,2,0,B|432:96|464:176|432:240,1,140
320,256,18286,5,0
256,256,18539,1,0
192,256,18792,1,0
96,256,19299,2,0,B|96:256|64:176|96:112,1,140
192,96,20312,5,0
320,96,20818,1,0
432,96,21325,2,0,B|432:96|464:176|432:240,1,140
320,256,22338,5,0
256,256,22591,1,0
192,256,22845,1,0
96,256,23351,2,0,B|96:256|64:176|96:112,1,140
256,32,24364,5,0
192,192,24871,1,0
256,192,25124,1,0
320,192,25377,1,0
352,304,26264,6,0,B|352:304|288:320|224:320|160:304,1,187
160,208,27277,2,0,B|160:208|224:224|288:224|352:208,1,187
320,96,28417,5,0
192,96,28923,1,0
80,96,29430,2,0,B|80:96|48:176|80:240,1,140
192,256,30443,5,0
256,256,30696,1,0
320,256,30950,1,0
416,256,31456,2,0,B|416:256|448:176|416:112,1,140
400,160,49058,5,0
352,112,49312,1,0
224,160,49818,1,0
176,112,50071,1,0
128,160,50325,1,0
224,240,51084,5,0
288,240,51337,1,0
336,304,51717,2,0,B|336:304|288:320|192:320|80:272,1,245
112,160,53110,5,0
160,112,53363,1,0
288,160,53870,1,0
336,112,54123,1,0
384,160,54376,1,0
384,304,54883,2,0,B|384:304|237:355|80:288,1,280
160,240,56150,5,0
224,208,56402,1,0
352,192,56910,1,0
480,304,57416,2,0,B|480:304|483:214|481:88|352:48,1,280
256,64,58936,2,0,B|256:64|256:192,1,105
256,304,59949,1,0
144,192,60962,5,0
32,304,61468,2,0,B|32:304|29:214|31:88|160:48,1,280
192,160,62989,2,0,B|192:160|256:192|336:160,2,140
224,256,64508,1,0
288,256,64761,1,0
416,304,65268,5,0
480,304,65521,2,0,B|480:304|483:214|481:88|352:48,1,280
256,64,67040,1,0
224,144,67421,1,0
288,144,67674,1,0
320,224,68053,2,0,B|320:224|240:240|176:224,1,140
192,320,69067,6,0,B|192:320|272:336|336:320,3,140
256,256,70840,1,0
320,160,71346,5,0
320,160,71599,1,0
192,160,71979,1,0
192,160,72232,1,0
256,64,72612,1,0
256,64,72866,1,0
80,304,89708,5,0
128,256,89961,1,0
192,224,90467,2,0,B|192:224|272:240|336:224,2,140
224,144,91734,5,0
288,144,91987,1,0
336,80,92367,2,0,B|336:80|288:64|192:64|80:112,1,245
224,272,93761,5,0
288,272,94014,1,0
320,192,94520,2,0,B|320:192|240:208|176:192,1,140
112,320,95533,2,0,B|112:320|259:371|416:304,1,280
352,240,96800,5,0
288,208,97052,1,0
160,192,97560,1,0
32,304,98066,2,0,B|32:304|29:214|31:88|160:48,1,280
256,64,99586,2,0,B|256:64|256:192,1,105
256,304,100599,1,0
368,192,101612,5,0
480,304,102118,2,0,B|480:304|483:214|481:88|352:48,1,280
320,160,103639,2,0,B|320:160|256:192|176:160,2,140
288,256,105158,1,0
224,256,105411,1,0
96,304,105918,5,0
32,304,106171,2,0,B|32:304|29:214|31:88|160:48,1,280
256,64,107690,1,0
288,144,108071,1,0
224,144,108324,1,0
192,224,108703,2,0,B|192:224|272:240|336:224,1,140
320,320,109717,6,0,B|320:320|240:336|176:320,3,140
256,256,111490,1,0
192,160,111996,5,0
192,160,112249,1,0
320,160,112629,1,0
320,160,112882,1,0
256,64,113262,1,0
256,64,113516,1,0
256,112,130154,5,0
384,112,130661,1,0
384,240,131167,1,0
320,240,131421,1,0
256,240,131674,1,4
128,240,132181,1,0
256,64,132688,5,0
256,128,132941,1,0
256,192,133194,1,0
256,320,133701,1,0
128,320,134208,5,2
400,320,135221,1,2
400,64,136235,2,2,B|400:64|253:131|96:64,1,280
192,288,138262,5,0
320,288,138769,1,0
432,288,139275,2,0,B|432:288|464:208|432:144,1,140
320,128,140290,5,0
256,128,140543,1,0
192,128,140796,1,0
96,128,141303,2,0,B|96:128|64:208|96:272,1,140
256,192,142316,12,0,145357
352,192,146369,1,0
480,304,146875,2,0,B|480:304|483:214|481:88|352:48,1,280
256,64,148395,2,0,B|256:64|256:192,1,105
256,304,149408,1,0
144,192,150421,5,0
32,304,150928,2,0,B|32:304|29:214|31:88|160:48,1,280
192,160,152447,2,0,B|192:160|256:192|336:160,2,140
224,256,153967,1,0
288,256,154220,1,0
416,304,154727,5,0
480,304,154980,2,0,B|480:304|483:214|481:88|352:48,1,280
256,64,156500,1,0
224,144,156879,1,0
288,144,157133,1,0
320,224,157513,2,0,B|320:224|240:240|176:224,1,140
192,320,158526,6,0,B|192:320|272:336|336:320,3,140
256,256,160299,1,0
256,192,160805,12,0,162705
