osu file format v3

[General]
AudioFilename: 15 - Shonen Heart.mp3
AudioHash: b6a1dfa2f5de5acb8a0b1ac59aa4cfda
PreviewTime: 56026
SampleSet: Normal

[Metadata]
Title:Shonen Heart
Artist:Home Made Kazoku
Creator:ZZT the Fifth
Version:Hard

[Difficulty]
HPDrainRate:4
CircleSize:5
OverallDifficulty:4
SliderMultiplier: 2.1
SliderTickRate: 2

[Events]
2,32416,47738
2,73076,88405
2,113744,128818
3,0,163,162,255

[TimingPoints]
16260,506.542845082313 47665,506.756756756757

[HitObjects]
336,64,16260,1,0,
256,96,16513,1,0,
176,64,16766,1,0,
208,224,17273,1,0,
320,224,17652,1,0,
320,224,17906,1,0,
176,160,18286,5,0,
256,208,18539,1,0,
336,160,18792,1,0,
400,240,19045,1,0,
320,320,19299,1,0,
208,320,19679,1,0,
208,320,19932,1,0,
176,64,20312,5,0,
256,96,20565,1,0,
336,64,20818,1,0,
400,128,21072,1,0,
336,224,21325,1,0,
256,192,21578,1,0,
192,224,21831,1,0,
336,80,22338,5,0,
256,128,22591,1,0,
176,80,22845,1,0,
112,176,23098,1,0,
192,240,23351,1,0,
304,240,23731,1,0,
304,240,23984,1,0,
32,224,24364,6,0,B|32:224|32:128|80:64|144:48,1,210
192,48,25124,1,0,
192,144,25377,1,0,
336,176,25757,1,0,
368,288,26264,6,0,B|368:288|272:336|160:336|80:288,1,260
112,208,27277,1,0,
256,208,27657,1,0,
336,208,27910,1,0,
480,224,28417,6,0,B|480:224|480:128|432:64|368:48,1,210
320,48,29176,1,0,
320,144,29430,1,0,
176,176,29810,1,0,
176,256,30063,1,0,
112,304,30316,6,0,B|112:304|208:352|320:352|400:304,1,260
400,256,31203,1,0,
320,224,31456,1,0,
240,256,31709,1,0,
160,224,31962,1,0,
80,256,32216,1,0,
416,144,49057,5,0,
368,80,49311,2,0,B|368:80|256:80,1,104
208,144,49818,1,0,
144,80,50071,1,0,
96,144,50324,1,0,
32,80,50578,1,0,
64,320,51084,5,0,
128,272,51338,1,0,
192,320,51591,1,0,
192,320,51718,2,0,B|192:320|224:336|304:352|352:320,1,156
272,256,52351,1,0,
272,176,52605,1,0,
48,144,53111,5,0,
96,80,53365,2,0,B|96:80|208:80,1,104
256,144,53872,1,0,
320,80,54125,1,0,
368,144,54378,1,0,
432,80,54632,1,0,
464,144,54885,6,0,B|464:144|480:192|464:256|432:304,2,156
400,208,55899,1,0,
304,224,56152,5,0,
208,224,56405,1,0,
256,144,56659,1,0,
256,64,56912,1,0,
48,64,57419,1,0,
48,144,57672,1,0,
48,144,57799,1,0,
48,240,58179,2,0,B|48:240|80:320|112:336,1,104
256,64,58939,5,0,
320,128,59193,1,0,
320,128,59319,1,0,
256,192,59573,1,0,
192,128,59826,1,0,
192,128,59953,1,0,
128,208,60206,1,0,
192,272,60459,2,0,B|192:272|256:288|352:272,1,156
464,64,61473,5,0,
464,144,61726,1,0,
464,144,61853,1,0,
464,240,62233,2,0,B|464:240|432:320|400:336,1,104
320,96,62994,6,0,B|320:96|256:112|160:96,2,156
352,176,64007,1,0,
272,208,64261,1,0,
176,208,64514,1,0,
96,176,64768,1,0,
96,256,65021,1,0,
192,336,65274,5,0,
272,288,65528,1,0,
352,336,65782,1,0,
352,336,65908,1,0,
432,336,66288,2,0,B|432:336|400:256|352:240,1,104
256,112,67049,5,0,
192,64,67301,1,0,
192,64,67429,1,0,
128,112,67681,1,0,
48,64,67934,1,0,
48,64,68061,1,0,
48,144,68315,2,0,B|48:144|80:224|144:288|224:320,1,208
256,288,69076,6,0,B|256:288|352:288|432:240,1,156
352,208,69582,2,0,B|352:208|288:224|208:224|176:208,1,156
224,160,70088,2,0,B|224:160|304:160|336:144|384:96,1,156
256,64,70849,1,0,
112,160,71355,5,0,
176,160,71609,1,0,
240,192,71862,1,0,
240,192,71989,1,0,
304,160,72242,1,0,
368,192,72496,1,0,
368,192,72623,1,0,
432,160,72876,1,0,
336,224,89725,5,0,
288,160,89978,2,0,B|288:160|176:160,1,104
96,160,90485,2,0,B|96:160|192:64,3,104
64,320,91752,5,0,
128,272,92006,1,0,
192,320,92259,1,0,
192,320,92386,2,0,B|192:320|224:336|304:352|352:320,1,156
304,256,93019,1,0,
240,256,93273,1,0,
160,208,93779,5,0,
208,144,94032,2,0,B|208:144|320:144,1,104
400,144,94539,2,0,B|400:144|304:48,3,104
256,48,95553,5,0,
128,80,95934,1,0,
48,192,96312,1,0,
144,192,96567,1,0,
208,224,96820,5,0,
304,224,97073,1,0,
256,144,97327,1,0,
256,64,97580,1,0,
464,64,98087,1,0,
464,144,98340,1,0,
464,144,98467,1,0,
464,240,98847,2,0,B|464:240|432:320|400:336,1,104
256,64,99607,5,0,
192,128,99861,1,0,
192,128,99987,1,0,
256,192,100241,1,0,
320,128,100494,1,0,
320,128,100621,1,0,
384,208,100874,1,0,
320,272,101127,2,0,B|320:272|256:288|160:272,1,156
48,64,102141,5,0,
48,144,102394,1,0,
48,144,102521,1,0,
48,240,102901,2,0,B|48:240|80:320|112:336,1,104
192,96,103662,6,0,B|192:96|256:112|352:96,2,156
160,176,104675,1,0,
240,208,104929,1,0,
336,208,105182,1,0,
416,176,105436,1,0,
416,256,105689,1,0,
320,336,105942,5,0,
240,288,106196,1,0,
160,336,106450,1,0,
160,336,106576,1,0,
80,336,106956,2,0,B|80:336|112:256|160:240,1,104
256,112,107717,5,0,
320,64,107969,1,0,
320,64,108097,1,0,
384,112,108349,1,0,
464,64,108602,1,0,
464,64,108729,1,0,
464,144,108983,2,0,B|464:144|432:224|368:288|288:320,1,208
256,288,109744,6,0,B|256:288|160:288|80:240,1,156
160,208,110250,2,0,B|160:208|224:224|304:224|336:208,1,156
288,160,110756,2,0,B|288:160|208:160|176:144|128:96,1,156
256,64,111517,1,0,
400,160,112023,5,0,
336,160,112277,1,0,
272,192,112530,1,0,
272,192,112657,1,0,
208,160,112910,1,0,
144,192,113164,1,0,
144,192,113291,1,0,
80,160,113544,1,0,
240,256,130138,5,4,
160,240,130392,1,4,
80,224,130645,1,4,
128,48,131153,5,0,
176,96,131407,1,0,
224,48,131660,1,0,
272,96,131914,1,0,
320,48,132166,1,0,
368,96,132420,1,0,
384,256,133179,6,0,B|384:256|341:273|272:288,1,104
224,288,133687,2,0,B|224:288|128:256|96:208,1,104
176,192,134194,5,0,
256,192,134447,1,0,
256,192,134574,1,0,
352,192,134953,1,0,
352,80,135207,1,0,
272,80,135460,1,0,
272,80,135587,1,0,
176,80,135967,1,0,
80,112,136220,6,0,B|80:112|32:160|32:256|128:288,2,208
128,192,137487,1,0,
128,192,137614,1,0,
288,272,138247,5,0,
368,224,138500,1,0,
368,224,138627,1,0,
448,176,138881,1,0,
400,112,139261,5,0,
400,112,139388,1,0,
352,48,139641,1,0,
256,64,140021,5,0,
288,128,140274,1,0,
224,128,140527,1,0,
176,192,140781,1,0,
224,256,141034,1,0,
256,320,141288,1,0,
288,256,141542,1,0,
320,192,141795,1,0,
256,192,142049,5,0,
256,192,142175,1,0,
256,80,142808,5,4,
320,128,143315,1,4,
384,176,143822,1,4,
464,144,144328,6,0,B|464:144|480:192|464:256|432:304,2,156
400,208,145341,1,4,
304,224,145595,5,0,
208,224,145848,1,0,
256,144,146102,1,0,
256,64,146355,1,4,
48,64,146862,1,0,
48,144,147115,1,0,
48,144,147242,1,0,
48,240,147622,2,4,B|48:240|80:320|112:336,1,104
256,64,148445,5,0,
320,128,148699,1,0,
320,128,148825,1,0,
256,192,149079,1,0,
192,128,149332,1,0,
192,128,149459,1,0,
128,208,149712,1,0,
192,272,149966,2,4,B|192:272|256:288|352:272,1,156
464,64,150979,5,0,
464,144,151233,1,0,
464,144,151359,1,0,
464,240,151739,2,4,B|464:240|432:320|400:336,1,104
320,96,152499,6,0,B|320:96|256:112|160:96,2,156
352,176,153513,1,0,
272,208,153766,1,0,
176,208,154020,1,0,
96,176,154273,1,0,
96,256,154526,1,4,
192,336,154780,5,0,
272,288,155033,1,0,
352,336,155287,1,0,
352,336,155413,1,0,
432,336,155793,2,4,B|432:336|400:256|352:240,1,104
256,112,156554,5,0,
192,64,156807,1,0,
192,64,156934,1,0,
128,112,157187,1,0,
48,64,157440,1,0,
48,64,157567,1,0,
48,144,157820,2,4,B|48:144|80:224|144:288|224:320,1,208
256,288,158581,6,0,B|256:288|352:288|432:240,1,156
352,208,159087,2,0,B|352:208|288:224|208:224|176:208,1,156
224,160,159594,2,0,B|224:160|304:160|336:144|384:96,1,156
256,64,160354,1,4,
256,192,160925,12,4,162635
