osu file format v6

[General]
AudioFilename: 1. NO RAIN NO RAINBOW.mp3
AudioLeadIn: 0
PreviewTime: 70150
Countdown: 0
SampleSet: Normal
StackLeniency: 0.7
Mode: 0
LetterboxInBreaks: 1

[Editor]
Bookmarks: 11662,15634,22443,36213,44383,58909,65567,84511,88147,99132,103602,109853,116557,204057
DistanceSpacing: 0.800000011920929
BeatDivisor: 4
GridSize: 8

[Metadata]
Title:No Rain No Rainbow
Artist:Home Made Kazoku
Creator:Zakiu
Version:Normal
Source:Naruto Shipudden: Kizuna
Tags:Naruto Sasuke Shippuden

[Difficulty]
HPDrainRate:2
CircleSize:4
OverallDifficulty:3
SliderMultiplier:1
SliderTickRate:1

[Events]
//Background and Video events
0,0,"naruto_shippuden_kizuna.jpg"
//Break Periods
2,29884,35971
2,103066,115971
2,153066,159607
//Storyboard Layer 0 (Background)
//Storyboard Layer 1 (Fail)
//Storyboard Layer 2 (Pass)
//Storyboard Layer 3 (Foreground)
//Storyboard Sound Samples
//Background Colour Transformations
3,100,0,0,0

[TimingPoints]
1048,454.545454545455,4,1,0,70,1,0

[Colours]
Combo1 : 166,166,166
Combo2 : 128,128,255
Combo3 : 0,0,130
Combo4 : 147,201,255

[HitObjects]
144,192,15593,1,0
224,192,16048,1,8
344,192,16729,2,8,B|416:192,1,50,0|8
392,112,17411,5,0
312,112,17866,1,8
192,112,18548,2,8,B|192:176,1,50,0|8
192,240,19229,5,0
272,240,19684,1,8
392,240,20366,2,8,B|392:184,1,50,0|8
392,112,21048,5,0
312,112,21502,1,8
192,112,22184,2,8,B|136:112,1,50,0|4
64,112,22866,5,0
64,312,24002,1,0
104,312,24229,1,8
184,312,24684,5,0
384,312,25820,1,0
424,312,26048,1,8
424,232,26502,5,0
424,32,27638,1,0
384,32,27866,1,8
304,32,28320,5,0
104,32,29457,1,8
64,32,29684,1,12
96,192,37411,5,0
256,192,38320,1,0
256,32,39229,1,0
416,32,40138,1,8
256,32,41048,6,0,B|256:240,3,200,0|0|0|0
360,352,44684,6,0,B|144:352,1,200,0|8
160,192,46502,1,0
320,192,47411,1,8
336,32,48320,6,0,B|128:32,1,200,0|8
136,192,50138,1,0
296,192,51048,1,8
160,104,51957,6,0,B|160:328|160:312,1,200,0|8
320,304,53775,2,0,B|320:96|320:80,1,200,0|8
160,80,55593,6,8,B|376:80|384:80,1,200,0|8
360,240,57411,2,0,B|152:240|144:240,1,200,0|8
176,80,59229,6,8,B|296:80|296:80,2,100,0|8|0
272,208,61048,2,0,B|168:208|168:208,2,100,0|8|0
384,96,62866,5,0
224,96,63775,1,8
312,232,64684,2,0,B|312:336,2,100,0|0|8
256,80,66502,5,0
152,176,67411,1,8
56,304,68320,2,0,B|160:304|160:304,2,100,0|0|8
216,296,70138,5,0
336,192,71047,1,8
304,32,71957,2,0,B|200:32|200:32,2,100,0|0|8
144,80,73775,5,0
88,144,74229,1,8
144,200,74684,1,0
88,256,75138,1,8
144,312,75593,1,0
256,192,76502,1,2
376,296,77411,5,0
432,240,77866,1,8
376,184,78320,1,0
424,120,78775,1,8
376,64,79229,1,0
256,192,80138,1,2
160,320,81047,5,0
208,256,81502,1,8
256,320,81957,1,0
304,256,82411,1,8
352,320,82866,1,0
256,192,83775,1,2
96,192,84684,5,0
176,192,85138,1,8
256,192,85593,2,0,B|320:192|320:192,1,50
256,256,86275,5,2
200,200,86729,1,0
256,144,87184,1,8
256,72,87638,2,0,B|184:72|184:72,1,50,0|0
256,208,88320,12,0,89229
88,192,89684,6,0,B|152:192|152:192,1,50
216,192,90366,1,8
296,192,90820,1,8
376,192,91275,2,8,B|440:192,1,50
256,208,91957,12,0,92866
224,72,93320,6,0,B|288:72|288:72,1,50
256,152,94002,1,8
256,232,94457,1,8
232,312,94911,2,8,B|296:312,1,50,0|0
256,208,95593,12,0,96502
256,56,96957,5,0
256,96,97184,1,0
192,144,97638,2,8,B|192:208,1,50
232,200,98093,2,2,B|232:264,1,50
272,240,98547,2,8,B|272:304,1,50
104,120,99229,5,0
56,184,99684,2,0,B|56:248,2,50
56,264,100593,5,0
88,240,100820,1,0
144,296,101275,5,8
200,240,101729,1,0
256,184,102184,5,8
288,152,102411,1,0
344,96,102866,5,6
256,328,117411,5,0
336,192,118320,1,8
176,192,119229,1,0
256,56,120138,1,8
416,56,121047,6,0,B|192:56,3,200,0|8|0|8
56,48,124684,6,0,B|224:200,1,200,0|8
136,328,126502,1,0
296,328,127411,1,8
440,264,128320,6,2,B|344:80,1,200
192,48,130138,1,0
96,176,131047,1,8
160,328,131957,6,8,B|368:328|368:328,1,200,0|8
352,168,133775,2,2,B|128:168|128:168,1,200,2|8
56,40,135593,6,8,B|216:168|216:168,1,200,0|8
304,40,137411,2,2,B|456:192|456:192,1,200,0|8
304,264,139229,6,8,B|192:264|192:264,2,100,0|8|0
304,104,141047,2,2,B|200:104|200:104,2,100,2|2|10
440,192,142866,5,8
280,192,143775,1,0
120,192,144684,2,2,B|184:104,2,100
240,304,146502,5,8
384,232,147411,1,0
320,88,148320,2,2,B|208:88|208:88,2,100
200,192,150138,5,0
360,192,151047,1,8
304,40,151957,2,8,B|200:40|200:40,2,100
417,318,161047,5,0
359,263,161502,1,8
305,204,161957,1,0
252,148,162411,1,8
198,95,162866,1,0
84,190,163775,1,8
88,312,164684,5,0
149,264,165138,1,8
210,214,165593,1,0
270,164,166047,1,8
332,111,166502,1,0
401,239,167411,1,8
312,104,168320,5,0
256,48,168775,1,8
200,104,169229,1,0
256,168,169684,1,8
256,248,170138,1,0
384,344,171047,1,8
416,184,171957,5,0
416,272,172411,1,8
336,272,172866,2,2,B|272:272|272:272,1,50,0|0
208,272,173547,5,0
128,272,174002,1,8
128,192,174457,1,0
128,112,174911,2,8,B|184:112|184:112,1,50,8|8
256,208,175593,12,0,176502
96,56,176957,6,0,B|144:96|144:96,1,50
192,144,177638,1,8
248,200,178093,1,8
304,256,178547,2,0,B|352:296,1,50
256,208,179229,12,0,180138
408,64,180593,6,0,B|360:112|360:112,1,50
312,152,181275,1,8
248,208,181729,1,8
192,264,182184,2,2,B|136:312,1,50,0|0
256,208,182866,12,0,183775
400,192,184229,5,0
360,192,184457,1,8
288,232,184911,2,8,B|240:200,1,50,8|10
216,232,185366,2,0,B|168:192,1,50
144,224,185820,2,8,B|96:192,1,50
40,104,186502,5,0
112,64,186957,2,0,B|168:64,2,50,0|0|0
112,144,187866,5,2
152,144,188093,1,0
232,144,188547,1,8
312,144,189002,1,0
392,144,189457,1,8
432,144,189684,1,0
256,208,190138,12,0,192866
