osu file format v6

[General]
AudioFilename: 1. NO RAIN NO RAINBOW.mp3
AudioLeadIn: 0
PreviewTime: 70150
Countdown: 0
SampleSet: Normal
StackLeniency: 0.7
Mode: 0
LetterboxInBreaks: 1

[Editor]
Bookmarks: 12125,15534,24739,44398,48034,56557,66628,78332,90037,99014,110037,134241,142991,160719,168446,177878
DistanceSpacing: 0.800000011920929
BeatDivisor: 4
GridSize: 8

[Metadata]
Title:No Rain No Rainbow
Artist:Home Made Kazoku
Creator:Zakiu
Version:Insane
Source:Naruto Shippuden: Kizuna
Tags:Naruto Sasuke Shippuden

[Difficulty]
HPDrainRate:6
CircleSize:5
OverallDifficulty:8
SliderMultiplier:1.7
SliderTickRate:1

[Events]
//Background and Video events
0,0,"naruto_shippuden_kizuna.jpg"
//Break Periods
2,30111,38479
2,103066,109388
2,117157,123707
2,193975,196661
//Storyboard Layer 0 (Background)
//Storyboard Layer 1 (Fail)
//Storyboard Layer 2 (Pass)
//Storyboard Layer 3 (Foreground)
//Storyboard Sound Samples
//Background Colour Transformations
3,100,0,0,0

[TimingPoints]
1048,454.545454545455,4,1,0,70,1,0

[Colours]
Combo1 : 173,173,173
Combo2 : 121,121,255
Combo3 : 0,0,130
Combo4 : 136,196,255

[HitObjects]
88,256,15593,1,0
152,176,15934,1,0
168,160,16048,1,8
224,96,16275,1,0
336,96,16729,1,0
408,96,16957,1,8
424,288,17411,5,0
344,216,17752,1,0
328,200,17866,1,8
272,144,18093,1,0
152,96,18548,1,0
80,96,18775,1,8
256,56,19229,5,0
256,136,19570,1,0
256,160,19684,1,8
256,224,19911,1,0
200,344,20366,1,0
312,344,20593,1,8
256,312,21048,5,0
256,208,21388,1,0
256,184,21502,1,8
256,104,21729,1,0
312,48,22184,1,0
200,48,22411,1,8
456,192,22866,5,0
360,192,23207,1,0
360,192,23320,2,0,B|272:192,1,85,8|0
136,192,24002,2,8,B|48:192,1,85,0|8
48,120,24684,5,0
168,120,25025,1,0
168,120,25138,2,8,B|256:120,1,85,8|0
392,120,25820,2,8,B|480:120,1,85,0|8
120,56,26502,5,0
120,304,26843,1,0
120,304,26957,2,0,B|192:256,1,85,8|0
296,176,27638,2,0,B|368:128,1,85,0|8
416,64,28320,5,0
112,56,28661,1,0
112,56,28775,2,0,B|168:128,1,85,8|0
248,224,29457,2,8,B|312:296,1,85,0|8
328,312,29798,1,8
352,336,29911,1,8
144,192,39229,5,8
256,120,39457,1,8
368,192,39684,1,8
256,264,39911,1,0
256,264,40025,1,0
256,264,40138,1,0
256,120,40366,1,0
256,264,40593,1,8
144,56,41047,6,0,B|144:152,1,85
256,120,41502,1,8
368,56,41729,2,0,B|368:144|368:144,1,85
352,256,42184,1,8
184,256,42411,1,8
136,88,42866,5,0
136,296,43093,1,0
136,88,43320,1,0
256,192,43547,1,8
256,192,43661,1,8
256,192,43775,1,8
376,88,44002,1,0
368,296,44229,1,0
264,344,44457,5,0
232,320,44570,1,0
200,296,44684,1,0
112,200,44911,1,0
136,176,45025,1,8
264,80,45366,1,0
360,80,45593,1,0
416,192,45820,1,0
448,192,45934,1,8
200,64,46275,5,0
312,64,46502,1,0
112,192,46729,1,0
392,192,46957,1,0
200,320,47184,1,0
312,320,47411,1,0
256,192,47638,1,4
64,192,48093,5,0
88,168,48207,1,0
112,144,48320,1,0
224,72,48547,1,0
264,72,48661,1,8
440,72,49002,1,0
328,176,49229,1,0
440,176,49457,1,0
440,208,49570,1,8
112,144,49911,6,0,B|176:88|176:88,1,85
336,96,50366,2,0,B|392:160|392:160,1,85
280,320,50820,2,0,B|192:320|192:320,2,85,0|0|8
416,192,51729,5,0
256,192,51957,1,0
80,192,52184,1,0
112,192,52297,1,8
256,64,52638,1,0
416,192,52866,2,0,B|240:192|240:192,1,170,0|8
72,192,53775,5,0
168,192,54002,1,0
192,192,54116,1,8
312,192,54457,1,0
416,192,54684,1,8
128,56,55138,6,0,B|216:56|216:56,3,85,0|0|0|8
248,56,55934,1,8
384,56,56275,1,0
464,56,56502,1,0
432,200,56957,1,8
432,288,57184,1,8
176,264,57638,2,0,B|88:264|88:264,4,85,0|0|0|0|0
72,192,59229,5,0
256,48,59684,1,0
440,192,60138,1,0
440,192,60366,1,0
304,328,60820,6,0,B|184:384|192:256|192:256,1,170
176,192,61502,1,0
200,128,61729,1,8
248,80,61957,1,0
320,72,62184,1,8
384,96,62411,1,0
488,184,62866,6,0,B|448:344|256:288|256:288,1,255,0|0
216,288,63775,1,0
168,240,64002,1,8
144,176,64229,1,0
168,112,64457,1,8
224,72,64684,2,0,B|456:200,1,255
336,320,65820,5,0
272,320,66047,1,8
48,336,66502,5,2
472,48,66957,1,2
256,32,67411,5,8
256,192,67638,1,8
256,352,67866,1,8
64,216,68320,5,0
96,184,68434,1,0
128,152,68547,1,0
160,184,68661,1,0
192,216,68775,1,8
272,304,69002,1,0
304,344,69116,1,0
336,304,69229,1,8
408,240,69457,1,0
440,208,69570,1,0
472,168,69684,1,8
256,40,70138,5,0
80,192,70593,1,8
256,344,71047,1,0
352,272,71275,1,8
440,192,71502,1,0
352,112,71729,1,8
160,112,72184,1,0
72,192,72411,1,0
160,272,72638,1,8
280,272,72866,5,0
160,112,73320,1,8
56,72,73775,5,0
128,72,74002,1,0
128,72,74116,1,8
128,72,74229,1,0
192,72,74457,1,2
256,72,74684,1,0
288,72,74797,1,8
320,72,74911,1,0
384,72,75138,1,8
384,136,75366,5,0
384,200,75593,2,8,B|296:200|296:200,3,85,8|8|8|8
432,304,76502,5,0
256,304,76729,1,8
64,304,76957,1,2
64,168,77411,5,0
112,120,77638,1,0
136,96,77752,1,8
160,72,77866,1,0
224,128,78093,5,2
232,192,78320,1,0
248,224,78434,1,8
280,240,78547,1,0
312,224,78661,1,8
328,192,78775,1,0
392,192,79002,5,2
392,128,79229,1,8
392,56,79457,1,0
328,56,79684,2,0,B|240:56|240:56,4,85
256,320,81047,5,0
144,224,81275,1,0
120,184,81388,1,8
144,144,81502,1,0
256,56,81729,1,8
424,192,81957,1,0
392,192,82070,1,8
360,192,82184,1,0
328,192,82297,1,8
296,192,82411,1,0
144,56,82638,5,2
56,192,82866,1,2
136,328,83093,1,2
256,192,83320,1,0
256,192,83434,1,8
256,192,83547,1,8
256,192,83661,1,0
256,192,83775,1,8
256,192,83888,1,8
256,192,84002,1,0
256,192,84116,1,8
256,192,84229,1,8
408,64,84684,5,0
104,64,85138,1,8
104,320,85593,1,0
408,320,86047,1,8
256,64,86502,5,0
64,192,86957,1,8
256,320,87411,1,0
448,192,87866,1,8
256,64,88320,5,0
72,192,88547,1,0
96,192,88661,1,0
120,192,88775,1,8
144,192,88888,1,8
168,192,89002,1,8
192,192,89116,1,0
216,192,89229,1,8
416,280,89684,6,0,B|416:184|416:184,1,85,0|0
416,56,90366,5,0
280,56,90820,1,0
280,192,91275,1,0
216,192,91502,1,8
96,96,91957,5,0
96,192,92184,1,0
96,296,92411,1,0
192,296,92638,1,0
192,192,92866,1,0
256,48,93320,5,0
256,336,93548,1,0
344,232,94002,5,0
480,232,94457,1,8
480,96,94911,1,0
416,96,95138,1,8
232,80,95593,5,0
128,80,95820,1,0
128,120,95934,1,8
128,160,96048,1,0
232,160,96275,1,0
232,224,96502,1,0
392,160,96957,5,8
392,288,97184,1,0
184,304,97638,5,8
120,248,97866,1,2
56,192,98093,1,8
120,128,98320,1,2
192,72,98548,1,8
288,72,98775,1,2
456,192,99229,5,0
256,192,99684,1,8
160,192,99911,1,8
64,192,100138,1,0
256,48,100593,5,0
256,112,100820,1,0
104,192,101275,1,8
416,192,101729,1,8
336,336,102184,5,0
176,336,102411,1,0
256,48,102866,1,4
256,48,110138,5,2
360,88,110366,1,8
392,120,110479,1,8
408,160,110593,1,8
256,192,110820,1,0
256,336,111048,1,8
400,336,111275,1,2
400,192,111502,1,8
144,48,111957,5,0
80,128,112298,1,8
80,160,112411,1,2
144,184,112638,1,0
144,320,113093,1,0
208,320,113320,1,8
400,56,113775,5,2
304,56,114002,1,0
264,56,114116,1,8
224,56,114229,1,8
144,56,114457,1,0
72,56,114684,1,2
144,184,114911,1,8
72,296,115138,1,2
424,64,115593,5,8
384,88,115707,1,8
456,144,115934,1,8
424,168,116048,1,8
360,200,116275,1,0
328,200,116388,1,8
296,200,116502,1,8
256,200,116616,1,8
224,200,116729,1,0
192,200,116843,1,8
160,200,116957,1,8
256,48,124457,5,0
288,72,124570,1,8
320,96,124684,1,0
408,192,124911,1,8
432,216,125025,1,0
328,296,125366,1,0
192,296,125593,1,8
88,264,125820,1,0
56,224,125934,1,8
64,88,126275,5,0
208,88,126502,1,0
240,88,126616,1,8
272,88,126729,1,8
304,88,126843,1,8
392,88,127070,1,0
392,168,127298,1,0
344,168,127411,1,8
256,224,127638,1,0
224,200,127752,1,8
136,32,128093,6,0,B|48:32,1,85,8|0
40,96,128548,1,8
40,160,128775,1,0
48,224,129002,2,0,B|120:288,1,85,8|0
160,232,129457,1,8
208,184,129684,1,0
264,144,129911,6,0,B|264:232,1,85,8|0
312,280,130366,1,8
376,280,130593,1,0
424,232,130820,2,0,B|424:136,1,85,8|0
376,96,131275,1,8
344,80,131388,1,0
80,48,131957,5,2
80,152,132184,1,8
80,192,132298,1,8
80,232,132411,1,8
80,336,132638,1,2
176,288,132866,1,0
216,264,132979,1,8
256,240,133093,1,0
352,184,133320,1,8
384,168,133434,1,8
256,48,133775,6,0,B|256:136,1,85
344,208,134229,1,0
304,208,134343,1,8
264,208,134457,1,0
176,160,134684,1,8
176,256,134911,1,8
424,72,135593,5,2
374,172,135820,1,8
338,69,136048,1,8
264,72,136275,1,0
224,72,136388,1,8
184,72,136502,1,0
112,136,136729,1,8
104,176,136843,1,8
128,216,136957,1,8
262,294,137411,5,0
262,294,137525,1,0
262,294,137638,1,0
262,294,137752,1,0
262,294,137866,1,0
400,184,138093,1,8
360,152,138207,1,0
320,184,138320,1,8
176,184,138548,1,8
136,152,138661,1,0
96,184,138775,1,8
132,39,139229,6,0,B|254:150|264:159,1,170
288,152,139798,1,0
320,152,139911,1,8
352,152,140025,1,0
383,151,140138,2,0,B|469:235|319:262,1,170,0|0
264,256,140820,1,0
232,256,140934,1,0
200,256,141048,1,8
120,184,141275,5,0
136,144,141388,1,8
160,112,141502,1,0
272,96,141729,1,8
376,96,141957,1,0
448,192,142184,1,8
424,224,142298,1,0
400,256,142411,1,8
376,288,142525,1,0
256,40,142866,5,2
160,112,143093,1,8
352,112,143320,1,2
104,192,143548,1,2
400,192,143775,1,8
168,280,144002,1,2
352,288,144229,1,8
80,192,144684,5,0
112,216,144798,1,0
144,192,144911,1,8
176,216,145025,1,8
208,192,145138,1,0
240,216,145252,1,0
272,192,145366,1,8
304,216,145479,1,8
336,192,145593,1,8
424,224,145820,2,2,B|424:176,3,42.5
48,48,146502,5,8
456,48,146957,1,8
256,339,147411,2,0,B|256:256|256:248,1,85
256,184,147866,1,8
256,120,148093,1,0
256,56,148320,1,8
104,72,148775,5,2
192,280,149002,1,8
256,72,149229,1,2
328,280,149457,1,8
416,72,149684,1,2
256,208,150138,12,0,151047
256,208,151502,12,0,152866
184,192,153093,5,8
328,192,153320,1,8
448,328,153775,5,2
72,40,154229,1,2
320,104,154684,1,0
256,48,154911,1,8
192,104,155138,1,0
128,224,155593,5,0
160,256,155707,1,8
192,288,155820,1,8
232,296,155934,1,0
264,296,156048,1,8
312,296,156161,1,8
352,288,156275,1,0
424,192,156502,1,8
352,104,156729,1,0
320,80,156843,1,8
288,56,156957,1,0
52,192,157411,6,0,B|140:191|139:192,5,85
208,192,158775,1,8
272,192,159002,1,2
352,96,159457,5,8
352,288,159684,1,8
160,288,159911,1,8
160,96,160139,1,8
256,192,160593,1,8
56,192,161047,5,0
128,136,161275,1,8
200,192,161502,1,0
272,136,161729,1,8
344,200,161957,1,0
416,136,162184,1,8
488,216,162411,6,0,B|431:306|449:279,1,85,0|8
344,296,162866,1,0
256,224,163093,1,8
168,296,163320,1,0
90,223,163547,6,0,B|28:160|28:160,1,85,0|0
86,96,164002,2,0,B|152:36|152:36,1,85,8|0
224,112,164457,1,8
296,40,164684,1,0
368,112,164911,1,8
296,184,165138,1,0
224,112,165366,1,8
296,40,165593,1,0
368,112,165820,1,8
296,112,166047,6,0,B|176:112|176:112,1,85,0|8
144,112,166502,2,0,B|55:111|55:111,1,85,0|8
64,176,166957,2,0,B|150:177|150:177,1,85
216,176,167411,2,0,B|312:176|312:176,1,85,0|0
336,272,167866,5,8
256,192,168093,1,0
176,112,168320,1,8
256,192,168547,1,0
336,112,168775,1,8
256,192,169002,1,0
176,272,169229,1,8
256,192,169457,1,0
336,272,169684,1,8
256,192,169911,1,0
336,112,170138,5,8
256,192,170366,1,0
176,112,170593,1,8
256,192,170820,1,0
176,272,171047,1,8
256,192,171275,1,0
336,272,171502,1,8
440,200,171957,5,0
400,96,172184,1,8
368,80,172297,1,8
336,64,172411,1,8
224,56,172638,1,0
192,56,172752,1,0
152,64,172866,1,8
120,88,172979,1,8
104,120,173093,1,8
160,192,173547,6,0,B|336:192,3,170,0|8|8|0
392,192,175138,1,8
392,56,175593,5,8
256,56,175820,1,8
216,56,175934,1,8
176,56,176047,1,8
80,120,176275,1,8
80,160,176388,1,8
80,200,176502,1,8
184,272,176729,1,8
216,272,176843,1,8
248,272,176957,1,8
384,296,177184,5,0
384,88,177638,1,2
120,88,178093,1,2
120,296,178547,2,8,B|208:296|208:296,1,85
320,264,179229,5,0
392,224,179457,1,8
424,192,179570,1,8
392,160,179684,1,8
304,80,179911,1,0
208,80,180138,1,0
88,200,180593,5,8
192,200,180820,1,0
440,200,181275,1,8
328,136,181729,1,0
432,56,182184,1,8
368,56,182411,1,8
160,56,182866,5,0
96,144,183093,1,8
96,176,183207,1,8
96,208,183320,1,8
136,312,183547,1,0
256,320,183775,1,8
288,304,183888,1,8
320,288,184002,1,8
352,272,184116,1,8
384,256,184229,1,8
384,152,184457,1,0
256,80,184684,5,8
256,112,184797,1,8
256,144,184911,1,8
256,176,185025,1,8
256,208,185138,1,8
136,208,185366,5,0
184,256,185593,1,8
208,280,185707,1,8
232,304,185820,1,8
256,328,185934,1,8
280,352,186047,1,8
168,80,186502,5,0
368,80,186729,1,8
336,104,186843,1,8
304,128,186957,1,8
232,184,187184,1,0
232,280,187411,1,8
336,184,187638,1,0
336,232,187752,1,8
336,280,187866,1,0
232,280,188093,1,8
144,248,188320,1,0
112,216,188434,1,8
80,184,188547,1,0
144,112,188775,5,0
176,96,188888,1,8
208,80,189002,1,0
336,88,189229,1,0
368,112,189343,1,8
392,152,189457,1,0
408,192,189570,1,8
392,232,189684,1,0
376,272,189797,1,8
360,304,189911,1,8
328,328,190025,1,8
288,328,190138,1,10
256,208,190366,12,0,193775
104,72,197411,5,2
216,72,197638,1,8
256,72,197752,1,8
296,72,197866,1,8
400,72,198093,1,2
400,104,198207,1,0
400,136,198320,1,8
400,168,198434,1,8
400,200,198547,1,8
264,304,198775,1,2
112,56,199229,5,8
72,80,199343,1,8
152,136,199570,1,8
112,160,199684,1,8
160,248,199911,2,0,B|200:224|200:224,6,42.5,0|8|8|0|0|8|0
344,80,201047,5,0
440,176,201388,1,8
464,200,201502,1,0
424,296,201729,1,8
344,200,201957,1,8
264,296,202184,1,8
192,200,202411,1,8
56,240,202866,5,8
88,208,202979,1,0
120,176,203093,1,8
208,144,203320,1,8
248,112,203434,1,0
280,88,203547,1,8
376,112,203775,1,0
400,144,203888,1,0
424,176,204002,1,8
448,208,204116,1,8
472,240,204229,1,8
256,192,204684,5,4
