osu file format v6

[General]
AudioFilename: Home Made Kazoku - Home Sweet Home.mp3
AudioLeadIn: 0
PreviewTime: -1
Countdown: 0
SampleSet: Normal
StackLeniency: 0.8
Mode: 0
LetterboxInBreaks: 1
StoryFireInFront: 0

[Editor]
DistanceSpacing: 0.800000011920929
BeatDivisor: 6
GridSize: 32

[Metadata]
Title:Home Sweet Home
Artist:Home Made Kazoku
Creator:Natsu gami
Version:Natsu gami mix
Source:
Tags:

[Difficulty]
HPDrainRate:7
CircleSize:5
OverallDifficulty:7
SliderMultiplier:1.4
SliderTickRate:2

[Events]
//Background and Video events
//Break Periods
2,65753,69017
//Storyboard Layer 0 (Background)
//Storyboard Layer 1 (Fail)
//Storyboard Layer 2 (Pass)
//Storyboard Layer 3 (Foreground)
//Storyboard Sound Samples
//Background Colour Transformations
3,100,163,162,255

[TimingPoints]
372,545.454545454545,4,1,0,100,1,0

[HitObjects]
96,256,9099,1,8
160,192,9462,1,0
224,128,9826,1,0
288,192,10190,2,0,B|416:288,1,140
256,192,11099,12,8,12917
192,192,13462,6,0,B|352:192,2,140
256,192,15644,5,2
256,192,16190,1,2
256,192,16735,1,2
256,192,17281,1,2
224,160,17462,5,0
256,192,17644,1,0
256,224,17826,2,0,B|320:288,1,46.6666666666667
320,256,18190,2,0,B|320:192,1,46.6666666666667
352,224,18553,1,0
384,224,18735,1,0
416,224,18917,1,0
448,224,19099,1,0
480,224,19281,1,0
480,192,19462,1,0
480,160,19644,1,0
480,128,19826,1,8
416,128,20190,5,0
384,128,20371,1,0
352,128,20553,1,0
320,128,20735,1,0
288,128,20917,1,0
256,128,21099,1,0
224,128,21281,1,0
192,128,21462,2,8,B|128:128,2,46.6666666666667
64,128,22371,5,0
64,160,22553,1,0
64,192,22735,1,0
64,224,22917,2,8,B|128:256,2,46.6666666666667
64,256,23462,1,2
64,288,23644,1,2
96,288,23826,1,2
128,192,24190,6,0,B|192:192,2,46.6666666666667
160,224,24735,1,0
192,256,24917,1,0
224,288,25099,1,0
256,320,25281,2,8,B|320:320,3,46.6666666666667
192,160,26190,5,0
224,160,26371,1,0
256,160,26553,2,0,B|352:160,2,93.3333333333333
320,256,27826,5,0
288,288,28008,1,0
256,288,28190,1,0
224,256,28371,1,0
256,224,28553,1,0
288,224,28735,2,0,B|288:128,2,93.3333333333333
256,192,30553,12,0,32190
256,192,32735,5,0
256,192,33099,12,0,34371
128,128,34917,5,0
160,160,35099,1,0
192,192,35281,1,0
256,192,35644,1,0
320,192,36008,1,0
384,192,36371,1,0
416,224,36553,2,0,B|448:288,2,46.6666666666667
416,96,37462,5,0
352,96,37826,1,0
288,96,38190,1,0
256,96,38371,2,0,B|192:96,3,46.6666666666667
192,128,39099,5,0
160,160,39281,1,0
128,192,39462,1,0
96,224,39644,1,0
128,256,39826,1,0
160,288,40008,2,0,B|224:320,2,46.6666666666667
192,256,40553,1,0
224,256,40735,1,0
256,256,40917,1,0
160,160,41553,5,0
192,96,41826,1,0
192,96,41917,1,0
192,96,42008,1,0
192,96,42099,1,0
256,96,42462,1,0
288,128,42645,5,0
288,128,42735,5,0
288,128,42826,1,0
288,128,42917,1,0
288,128,43008,1,0
288,128,43099,1,0
288,128,43190,2,0,B|320:160,2,23.3333333333333
224,224,43917,6,0,B|160:192,1,70
160,128,44462,2,0,B|224:96,1,70
288,96,45008,2,0,B|352:128,1,70
352,192,45553,2,0,B|288:224,1,70
256,160,46190,2,0,B|224:192,2,23.3333333333333
224,160,46553,2,0,B|192:192,2,23.3333333333333
160,160,46917,2,0,B|128:224,3,70
256,192,48190,12,0,50735
256,192,51281,5,0
256,288,51826,6,0,B|320:288,3,46.6666666666667
320,256,52553,5,0
352,224,52735,1,0
384,192,52917,1,0
256,192,53099,12,0,53826
128,160,54190,5,0
128,192,54371,2,0,B|192:192,2,46.6666666666667
192,256,55099,5,0
224,256,55281,1,0
256,256,55462,1,0
288,256,55644,1,0
320,256,55826,2,0,B|384:256,2,46.6666666666667
320,256,56281,1,8
320,256,56371,1,8
320,256,56462,1,8
320,256,56553,2,8,B|320:224,2,23.3333333333333
320,160,57190,6,0,B|352:160,2,23.3333333333333
288,128,57462,1,0
256,96,57644,1,0
224,96,57826,1,0
192,96,58008,1,0
160,96,58190,1,0
128,96,58371,1,0
96,128,58553,1,0
96,192,58826,5,0
128,224,59008,1,0
160,224,59190,1,0
192,256,59371,1,0
224,288,59553,1,0
256,256,59735,1,0
288,288,59917,2,0,B|320:224,1,70
319,225,60281,2,0,B|384:288,1,70
369,273,60644,1,0
369,273,60735,2,0,B|416:224,2,46.6666666666667
384,192,61462,5,0
384,160,61553,1,0
352,160,61644,1,0
224,160,62281,5,0
192,160,62462,1,0
192,160,62553,1,0
128,160,62826,1,0
96,192,63008,1,0
96,224,63099,1,0
96,256,63190,1,0
96,256,63281,1,0
192,256,63735,5,0
256,256,63917,1,0
256,256,64008,1,0
288,256,64190,1,0
352,224,64462,5,0
416,192,64735,1,0
448,192,64826,1,0
448,128,65008,1,0
416,128,65099,2,0,B|352:128,2,46.6666666666667
416,128,65553,1,0
160,64,69917,6,0,B|224:96,2,70
128,96,70644,1,0
96,128,70735,1,0
128,160,70917,1,0
96,192,71099,1,0
128,224,71281,1,0
96,256,71371,1,0
128,288,71553,1,0
160,256,71735,1,0
