osu file format v6

[General]
AudioFilename: Hollywood Undead -Young.mp3
AudioLeadIn: 1974
PreviewTime: -1
Countdown: 1
SampleSet: None
StackLeniency: 0.7
Mode: 0
LetterboxInBreaks: 1
SkinPreference:Default

[Editor]
Bookmarks: 21642,28806,156866,164926,186418
DistanceSpacing: 0.800000011920929
BeatDivisor: 2
GridSize: 32

[Metadata]
Title:Young
Artist:Hollywood Undead
Creator:VorcePA
Version:Easy
Source:
Tags:Rock

[Difficulty]
HPDrainRate:2
CircleSize:4
OverallDifficulty:3
SliderMultiplier:1.1
SliderTickRate:4

[Events]
//Background and Video events
//Break Periods
2,21832,27356
2,157056,163476
//Storyboard Layer 0 (Background)
//Storyboard Layer 1 (Fail)
//Storyboard Layer 2 (Pass)
//Storyboard Layer 3 (Foreground)
//Storyboard Sound Samples
//Background Colour Transformations
3,100,163,162,255

[TimingPoints]
140,447.761194029851,4,0,0,100,1,0

[HitObjects]
61,53,6408,5,8
92,69,6632,1,8
112,28,7080,1,8
160,64,8199,5,0
224,64,9095,1,0
288,64,9990,1,0
352,64,10886,1,0
352,128,11781,1,0
256,128,12677,1,12
192,128,13572,5,0
192,128,13796,1,0
275,179,14468,1,0
246,109,15363,1,0
306,63,16259,1,0
374,46,17154,5,0
363,119,18050,1,0
283,171,18945,1,0
212,217,19841,2,4,B|53:60|54:62,2,220
159,68,28796,5,0
193,80,29244,1,0
220,96,29468,1,0
261,63,29692,1,0
323,111,30587,1,8
325,192,31483,5,0
256,211,31931,1,0
201,235,32154,1,0
144,213,32378,1,0
82,165,33274,1,8
82,76,33722,5,0
169,76,34169,1,0
257,76,34617,1,0
345,76,35065,1,12
349,176,35513,5,0
261,176,35960,1,0
173,175,36408,1,0
85,177,36856,1,8
132,262,37304,5,0
155,280,37751,1,0
178,300,38199,1,0
202,323,38647,1,8
265,196,39095,2,0,B|148:195|147:195,3,110,0|0|0|8
136,112,41334,5,0
203,81,41781,1,0
255,116,42005,1,0
299,77,42229,1,0
403,126,43125,1,8
298,161,44020,1,8
171,159,44916,1,8
302,162,45811,1,8
102,68,46707,5,0
81,156,47154,1,0
136,192,47378,1,0
80,233,47602,1,0
129,330,48498,1,8
197,265,49393,1,8
254,47,49841,5,0
293,125,50289,1,4
254,153,50513,1,4
292,189,50737,1,4
248,227,50960,1,4
260,317,51632,5,0
308,230,52080,1,4
248,194,52304,1,4
297,157,52528,1,4
238,128,52751,1,4
92,63,53871,5,0
153,64,54319,1,0
217,70,54766,1,0
283,68,55214,1,0
349,69,55662,1,0
353,144,56110,1,0
283,144,56557,1,0
256,32,57453,5,12
256,96,58348,1,12
256,160,59244,1,12
256,224,60140,1,12
256,288,61035,1,12
192,288,61931,1,12
192,224,62378,1,12
256,160,62826,5,12
256,160,63050,1,12
256,160,63274,1,12
256,160,63498,1,12
256,160,63722,6,12,B|465:73|279:256,7,220
244,271,70886,6,12,B|35:358|221:175,7,220
254,171,78498,5,0
254,171,78722,1,0
254,171,78945,1,0
342,245,79393,1,0
257,257,79841,1,0
212,257,80065,1,0
168,257,80289,1,0
124,257,80513,1,0
80,257,80737,1,0
96,128,81184,5,0
160,128,81632,1,0
224,128,82080,1,0
288,128,82528,1,0
288,224,82975,5,0
224,224,83423,1,0
160,224,83871,1,0
96,224,84319,1,0
96,320,84766,1,0
160,320,85214,1,0
64,64,86110,6,8,B|448:320,1,440
448,64,88796,2,8,B|64:320,1,440
256,96,91483,6,8,B|256:320,1,220
256,320,92826,2,8,B|256:96,1,220
371,190,94169,2,8,B|141:189,1,220
152,191,95513,2,8,B|377:190,1,220
216,151,97751,6,0,B|331:270|328:266,4,110
297,151,99990,2,0,B|201:244,3,110
118,73,102229,5,0
191,105,102677,1,0
180,163,102901,1,0
245,146,103125,1,0
293,217,103572,5,0
306,140,104020,1,0
364,162,104244,1,0
349,97,104468,1,0
283,80,104916,1,0
212,79,105363,1,0
138,78,105811,1,0
136,160,106259,1,0
211,154,106707,1,0
260,44,107602,5,12
263,118,108050,1,12
262,195,108498,1,12
259,278,108945,5,12
192,288,109393,1,12
192,224,109841,1,12
192,128,110289,5,12
256,128,110737,1,12
320,128,111184,1,12
320,192,111632,5,12
320,256,112080,1,12
256,288,112528,1,12
228,219,112975,6,12,B|282:177,4,55
125,78,114542,5,4
192,32,115438,1,0
224,64,115662,1,8
251,87,116557,1,4
407,82,117453,5,0
410,172,117901,1,0
319,179,118348,1,4
233,181,118796,1,0
128,192,119244,1,0
64,96,119692,1,0
128,32,120140,1,4
160,96,121035,5,12
224,96,121931,1,0
288,96,122826,1,0
288,160,123722,1,0
256,32,124617,6,0,B|320:96|352:128|224:224|192:288|352:352|352:352,3,330,0|0|0|8
352,352,128871,1,8
384,352,129095,1,8
352,256,129542,5,0
352,224,129766,1,0
352,192,129990,1,0
256,192,130438,5,8
256,224,130662,1,8
256,256,130886,1,8
160,256,131334,5,0
160,224,131557,1,0
160,192,131781,1,0
256,128,132229,5,8
224,128,132453,1,8
192,128,132677,1,8
96,128,133125,1,0
96,192,133572,1,0
96,256,134020,1,0
160,256,134468,2,0,L|224:256|384:256,1,220
224,192,135811,5,8
256,192,136035,1,8
288,192,136259,1,8
384,192,136707,5,0
416,192,136931,1,0
448,192,137154,1,0
448,288,137602,5,8
416,288,137826,1,8
384,288,138050,1,8
288,288,138498,5,0
256,288,138722,1,0
224,288,138945,1,0
128,288,139393,5,8
128,256,139617,1,8
128,224,139841,1,8
128,128,140289,1,0
224,128,140737,1,0
320,128,141184,1,0
416,128,141632,2,0,L|416:256,1,220
256,192,142975,5,8
256,160,143199,1,8
256,128,143423,1,8
352,128,143871,5,4
352,160,144095,1,4
352,192,144319,1,4
352,288,144766,5,8
320,288,144990,1,8
288,288,145214,1,8
192,288,145662,5,4
192,256,145886,1,4
192,224,146110,1,4
160,96,146557,5,0
192,96,146781,1,0
224,96,147005,1,0
320,96,147453,1,0
416,96,147901,1,0
512,96,148348,1,0
512,160,148796,2,0,L|288:256,1,220
320,320,150140,5,8
288,320,150363,1,8
256,320,150587,1,8
160,320,151035,5,4
128,320,151259,1,4
96,320,151483,1,4
96,224,151931,5,8
96,192,152154,1,8
96,160,152378,1,8
96,64,152826,5,4
128,64,153050,1,4
160,64,153274,1,4
256,64,153722,1,0
352,64,154169,1,0
448,64,154617,1,0
448,192,155065,2,0,C|320:256|128:192|0:256,1,440
64,64,164916,5,12
128,64,165811,1,12
192,64,166707,1,12
256,64,167602,5,12
320,64,168498,1,12
384,64,169393,1,12
448,64,170289,1,12
448,128,171184,5,12
384,128,171632,1,12
320,128,172080,1,12
256,128,172528,1,12
192,128,172975,1,12
128,128,173423,1,12
64,128,173871,1,12
0,128,174319,1,12
0,192,174766,5,12
64,192,175214,1,12
128,192,175662,1,12
192,192,176110,1,12
256,192,176557,1,12
320,192,177005,1,12
384,192,177453,1,12
448,192,177901,1,12
479,261,178348,6,12,C|361:262,1,110
307,256,179244,2,12,C|194:256,1,110
122,256,180140,2,12,C|166:144,1,110
239,139,181035,2,12,C|354:139,1,110
407,137,181931,6,12,C|406:248,1,110
334,251,182826,2,12,C|333:126,1,110
252,138,183722,2,12,C|252:266|249:263,1,110
264,360,184617,6,12,C|199:283|193:231|234:193|296:145|317:91|304:53|273:19|247:6,1,440
