osu file format v5

[General]
AudioFilename: 01- Undead.mp3
AudioLeadIn: 0
PreviewTime: -1
Countdown: 1
SampleSet: Normal
StackLeniency: 0.7
Mode: 0
LetterboxInBreaks: 1

[Editor]
DistanceSpacing: 0.800000011920929
BeatDivisor: 1
GridSize: 32

[Metadata]
Title:Undead
Artist:Hollywood Undead
Creator:Krion
Version:Easy
Source:
Tags:Undead Hollywood

[Difficulty]
HPDrainRate:5
CircleSize:5
OverallDifficulty:5
SliderMultiplier:2.6
SliderTickRate:3

[Events]
//Background and Video events
Video,0,"Hollywood_Undead_-_Undead.avi"
//Break Periods
//Storyboard Layer 0 (Background)
//Storyboard Layer 1 (Fail)
//Storyboard Layer 2 (Pass)
//Storyboard Layer 3 (Foreground)
//Storyboard Sound Samples
//Background Colour Transformations
3,100,163,162,255

[TimingPoints]
0,1000,4,1,0,100,1,0
10207,1000,4,1,0,100,1,0

[HitObjects]
80,87,1000,1,0
78,126,4000,1,0
64,362,5000,1,0
78,122,6000,1,0
309,197,7000,1,0
102,244,8000,1,0
265,114,9000,1,0
232,197,10000,1,0
225,158,11000,1,0
71,260,12000,1,0
327,153,13000,5,0
91,137,14000,1,0
233,199,15000,1,0
116,216,16000,1,0
100,214,17000,2,0,B|261:146,6,260
256,183,24000,2,0,B|-22:166|49:299|281:271|283:255,7,260
181,157,33000,1,0
208,139,35000,5,0
290,143,37000,5,0
421,121,38000,5,0
82,267,40000,5,0
252,202,41000,5,0
95,262,42000,5,0
231,59,43000,5,0
251,103,45000,1,0
275,198,46000,1,0
170,180,47000,1,0
207,172,49000,1,0
227,325,50000,1,0
256,128,52000,1,0
160,320,53000,1,0
384,128,54000,1,0
160,128,57000,1,2
256,288,58000,1,2
192,160,59000,1,2
256,192,74000,12,2,85000
224,192,86000,5,2
224,224,88000,1,2
320,128,91000,1,2
64,96,92000,1,2
288,128,93000,1,2
384,320,94000,1,2
224,160,97000,1,2
384,128,99000,5,2
288,320,100000,1,2
352,160,101000,1,2
256,160,102000,1,2
256,160,103000,1,2
256,160,104000,1,2
0,192,105000,1,2
192,192,106000,1,2
256,256,108000,5,2
224,128,109000,1,2
288,160,111000,1,10
288,160,120000,1,10
288,256,121000,1,10
288,160,122000,1,10
288,160,127000,1,10
160,224,133000,1,10
224,160,134000,1,10
224,128,157000,1,0
224,256,158000,1,0
288,160,160000,1,0
128,224,161000,1,0
192,96,162000,1,0
192,64,169000,2,0,B|160:192|160:192|320:256|288:256|352:128|96:96|64:192|384:320|384:64|32:320|288:320|288:32|32:256|384:256|128:320|416:128,18,520
256,128,217000,1,0
256,128,220000,1,0
192,160,223000,1,0
352,192,224000,1,0
192,192,225000,1,0
224,160,226000,5,0
256,192,227000,12,0,241000
224,160,242000,5,0
192,160,244000,1,0
384,64,245000,1,0
224,192,246000,1,0
352,384,247000,1,0
288,192,248000,1,0
128,224,249000,1,0
192,128,250000,1,0
384,288,251000,1,0
224,192,252000,1,0
288,160,254000,5,0
128,192,255000,1,0
256,256,256000,1,0
224,96,257000,5,0
192,192,258000,1,0
352,192,259000,5,0
128,192,260000,5,0
352,192,261000,5,0
128,192,262000,5,0
352,192,263000,5,0
96,192,264000,5,0
