osu file format v12

[General]
AudioFilename: 02 Sell Your Soul.mp3
AudioLeadIn: 0
PreviewTime: 54604
Countdown: 1
SampleSet: Soft
StackLeniency: 0.7
Mode: 0
LetterboxInBreaks: 1
WidescreenStoryboard: 0

[Editor]
DistanceSpacing: 1
BeatDivisor: 8
GridSize: 8

[Metadata]
Title:Sell Your Soul
TitleUnicode:Sell Your Soul
Artist:Hollywood Undead
ArtistUnicode:Hollywood Undead
Creator:v0xtrot
Version:Loco
Source:
Tags:
BeatmapID:36244
BeatmapSetID:8942

[Difficulty]
HPDrainRate:7
CircleSize:5
OverallDifficulty:9
ApproachRate:8
SliderMultiplier:1.8
SliderTickRate:2

[Events]
//Background and Video events
0,0,"HU_bird_by_125427.jpg",0,0
//Break Periods
2,68516,75065
2,113081,126058
//Storyboard Layer 0 (Background)
//Storyboard Layer 1 (Fail)
//Storyboard Layer 2 (Pass)
//Storyboard Layer 3 (Foreground)
//Storyboard Sound Samples
//Background Colour Transformations
3,100,163,162,255

[TimingPoints]
7039.59825443217,428.510212826739,4,2,0,100,1,0
40891,-100,4,2,0,100,0,0
54068,-100,4,1,0,100,0,0
75172,-100,4,2,0,100,0,0
97883,-100,4,1,0,100,0,1
113310,-100,4,2,0,100,0,0
126915,-100,4,2,0,50,0,0
127129,-100,4,2,0,100,0,0
128415,-100,4,2,0,50,0,0
128843,-100,4,2,0,100,0,0
130343,-100,4,2,0,50,0,0
130557,-100,4,2,0,100,0,0
131843,-100,4,2,0,50,0,0
132271,-100,4,2,0,100,0,0
154125,-100,4,1,0,100,0,1
168159,-100,4,1,0,100,0,0

[Colours]
Combo1 : 163,7,108
Combo2 : 234,239,10

[HitObjects]
32,40,7039,1,8,0:0:0:0:
120,40,7253,2,0,B|224:40,1,90
296,40,7682,1,8,0:0:0:0:
384,40,7896,2,0,B|488:40,1,90
472,128,8325,1,8,0:0:0:0:
384,128,8539,1,0,0:0:0:0:
296,128,8753,5,8,0:0:0:0:
208,128,8967,2,0,B|104:128,1,90
24,128,9396,1,8,0:0:0:0:
24,216,9610,2,0,B|120:216,1,90
200,216,10039,1,8,0:0:0:0:
288,216,10253,1,0,0:0:0:0:
376,216,10467,5,8,0:0:0:0:
464,216,10681,2,0,B|464:312,1,90
376,304,11110,1,8,0:0:0:0:
288,304,11324,2,0,B|184:304,1,90
104,304,11753,1,8,0:0:0:0:
16,304,11967,1,0,0:0:0:0:
16,216,12181,5,8,0:0:0:0:
496,216,12824,1,8,0:0:0:0:
256,16,13467,1,8,0:0:0:0:
256,192,13895,5,4,0:0:0:0:
256,280,14110,2,0,B|256:168,1,90
256,101,14538,2,2,B|256:205,1,90
256,280,14967,2,0,B|256:376,1,90,0|2,0:0|0:0,0:0:0:0:
256,192,15609,6,0,B|256:88,1,90
256,280,16038,2,2,B|256:168,1,90
256,280,16466,2,2,B|256:376,1,90,2|0,0:0|0:0,0:0:0:0:
256,280,16895,1,2,0:0:0:0:
256,192,17109,1,2,0:0:0:0:
256,104,17323,5,8,0:0:0:0:
120,80,17538,2,4,B|80:120|128:176,1,90
392,80,18180,2,4,B|432:120|384:176,1,90
256,344,18823,5,8,0:0:0:0:
40,344,19252,2,4,B|16:304|64:264,1,90
472,344,19894,2,4,B|496:304|448:264,1,90
256,24,20537,2,0,B|256:128,1,90,0|4,0:0|0:0,0:0:0:0:
256,208,20966,5,0,0:0:0:0:
256,120,21180,2,0,B|256:224,1,90
168,208,21608,2,2,B|88:280,1,90
344,208,22037,2,2,B|424:280,1,90
320,288,22465,2,0,B|392:360,1,90
192,288,22894,2,0,B|120:360,1,90
256,360,23322,2,2,B|256:256,1,90
256,176,23751,2,2,B|256:280,1,90
256,176,24180,5,8,0:0:0:0:
120,80,24395,2,4,B|80:120|128:176,1,90
392,80,25037,2,4,B|432:120|384:176,1,90
256,344,25680,5,8,0:0:0:0:
176,304,25894,2,2,B|152:264|200:224,1,90
336,304,26322,2,2,B|360:264|312:224,1,90
176,80,26751,2,0,B|152:120|200:160,1,90
336,80,27179,2,2,B|360:120|312:160,1,90,4|2,0:0|0:0,0:0:0:0:
312,248,27608,6,0,B|400:304|448:224|496:296,2,180,4|0|0,0:0|0:0|0:0,0:0:0:0:
256,72,28893,1,0,0:0:0:0:
200,248,29322,2,0,B|112:304|64:224|16:296,2,180
216,32,31464,6,0,B|88:176,1,180
296,32,32321,2,2,B|424:184,1,180
257,253,33178,1,0,0:0:0:0:
256,72,33607,6,0,B|256:272,1,180,2|0,0:0|0:0,0:0:0:0:
99,167,34464,5,0,0:0:0:0:
160,336,34892,2,2,B|96:160,1,180
413,167,35749,1,0,0:0:0:0:
352,336,36177,2,2,B|416:160,1,180
256,72,36821,5,0,0:0:0:0:
256,72,37035,2,0,B|256:256,2,180,0|0|4,0:0|0:0|0:0,0:0:0:0:
405,150,38320,5,0,0:0:0:0:
256,48,38749,2,2,B|408:152,1,180
107,151,39606,1,0,0:0:0:0:
256,248,40034,2,2,B|96:144,1,180,2|2,0:0|0:0,0:0:0:0:
256,24,41534,5,0,0:0:0:0:
168,32,41748,2,0,B|104:32|80:80,1,90
32,136,42177,1,2,0:0:0:0:
456,144,42605,2,2,B|448:104|400:72,1,90
256,320,43248,5,0,0:0:0:0:
256,232,43462,2,2,B|256:136,2,90
168,256,44105,1,0,0:0:0:0:
344,256,44319,1,2,0:0:0:0:
256,144,44534,1,0,0:0:0:0:
40,40,44962,5,0,0:0:0:0:
96,112,45177,2,0,B|96:208,1,90
184,200,45605,2,2,B|184:8,1,180
272,112,46248,2,0,B|272:224,1,90
360,200,46676,2,2,B|360:304,1,90
448,200,47105,2,2,B|448:88,1,90
448,200,47533,1,0,0:0:0:0:
448,112,47748,1,2,0:0:0:0:
88,336,48390,5,0,0:0:0:0:
152,272,48605,2,2,B|240:208,1,90
256,136,49033,1,2,0:0:0:0:
256,312,49462,1,0,0:0:0:0:
256,224,49676,1,2,0:0:0:0:
256,136,50104,5,0,0:0:0:0:
256,136,50319,1,0,0:0:0:0:
256,48,50533,2,0,B|144:48,1,90,0|2,0:0|0:0,0:0:0:0:
256,48,50961,2,2,B|360:48,1,90
256,320,51818,5,0,0:0:0:0:
256,232,52033,2,0,B|288:176|232:160|264:128,1,90,0|2,0:0|0:0,0:0:0:0:
252,59,52461,2,0,B|220:115|276:131|244:163,1,90
340,148,52890,2,2,B|284:180|268:124|236:156,1,90
168,144,53318,2,0,B|224:112|240:168|272:136,1,90,0|2,0:0|0:0,0:0:0:0:
254,146,53747,1,2,0:0:0:0:
254,146,53961,2,0,B|256:248,1,90,0|4,0:0|0:0,0:0:0:0:
128,368,54604,6,4,B|184:352|184:296,1,90
256,248,55032,1,4,0:0:0:0:
256,248,55246,1,0,0:0:0:0:
384,368,55461,2,4,B|328:352|328:296,1,90
128,16,56318,6,4,B|184:32|184:88,1,90
256,136,56746,1,4,0:0:0:0:
256,136,56960,1,0,0:0:0:0:
384,16,57175,2,4,B|328:32|328:88,1,90
256,240,57818,5,0,0:0:0:0:
256,240,58032,1,8,0:0:0:0:
256,240,58246,1,0,0:0:0:0:
256,112,58675,5,0,0:0:0:0:
232,24,58889,2,0,B|176:24|160:88,1,90
295,199,59317,2,0,B|348:179|341:114,1,90,0|0,0:0|0:0,0:0:0:0:
256,112,59746,5,0,0:0:0:0:
232,24,59960,2,0,B|176:24|160:88,1,90,0|4,0:0|0:0,0:0:0:0:
144,160,60389,1,0,0:0:0:0:
64,200,60603,2,0,B|64:296,2,90,0|4|0,0:0|0:0|0:0,0:0:0:0:
144,160,61246,1,0,0:0:0:0:
224,200,61460,1,4,0:0:0:0:
144,248,61674,1,0,0:0:0:0:
144,336,61888,5,4,0:0:0:0:
144,248,62103,2,4,B|304:136,1,180
256,320,62960,5,0,0:0:0:0:
256,320,63174,1,8,0:0:0:0:
256,320,63388,1,0,0:0:0:0:
368,336,63602,5,4,0:0:0:0:
368,248,63817,2,4,B|208:136,1,180
256,320,64674,5,0,0:0:0:0:
256,320,64888,1,8,0:0:0:0:
256,320,65102,1,8,0:0:0:0:
256,32,65531,5,0,0:0:0:0:
168,64,65745,2,0,B|64:96,1,90
344,64,66174,2,0,B|448:96,1,90
200,176,66602,2,0,B|256:104,1,90
312,176,67031,2,0,B|256:104,1,90,4|0,0:0|0:0,0:0:0:0:
256,104,67459,1,0,0:0:0:0:
256,104,67673,2,0,B|256:216,1,90,4|0,0:0|0:0,0:0:0:0:
256,104,68102,2,0,B|256:12,1,90,0|4,0:0|0:0,0:0:0:0:
256,344,75815,6,0,B|256:248,1,90,0|2,0:0|0:0,0:0:0:0:
328,88,76458,2,2,B|384:176|272:176|344:264,2,180
184,88,77743,2,0,B|128:176|240:176|168:264,1,180,0|2,0:0|0:0,0:0:0:0:
256,352,78815,5,0,0:0:0:0:
336,312,79029,2,2,B|424:248|424:248|360:184,1,180
256,56,79886,1,0,0:0:0:0:
256,232,80314,2,2,B|256:336,1,90
176,312,80743,2,2,B|88:248|88:248|152:184,1,180
256,128,81386,1,0,0:0:0:0:
256,40,81600,1,4,0:0:0:0:
256,328,82028,5,0,0:0:0:0:
256,240,82243,1,2,0:0:0:0:
256,328,82457,1,0,0:0:0:0:
256,152,82885,5,0,0:0:0:0:
72,144,83314,2,0,B|112:240|176:296,1,180
440,144,84171,2,2,B|400:240|336:296,2,180,2|2|4,0:0|0:0|0:0,0:0:0:0:
256,312,86099,5,0,0:0:0:0:
344,296,86313,2,2,B|408:288|424:240,1,90
416,160,86742,2,0,B|344:96|304:168|240:128,1,180,0|2,0:0|0:0,0:0:0:0:
246,132,87385,1,2,0:0:0:0:
40,336,87813,5,0,0:0:0:0:
40,248,88028,2,2,B|40:144,1,90
88,72,88456,2,0,B|192:72,1,90
240,128,88885,2,2,B|240:240,1,90
432,72,89527,6,0,B|432:168,1,90,0|2,0:0|0:0,0:0:0:0:
432,248,89956,1,2,0:0:0:0:
344,248,90170,2,0,B|344:208|344:208|280:208,1,90
200,208,90599,1,2,0:0:0:0:
200,120,90813,2,0,B|200:80|200:80|272:80,1,90,2|0,0:0|0:0,0:0:0:0:
336,80,91241,1,0,0:0:0:0:
472,120,91456,2,0,B|472:80|472:80|400:80,1,90,0|2,0:0|0:0,0:0:0:0:
336,80,91884,2,2,B|336:176,1,90
336,80,92313,1,4,0:0:0:0:
88,192,92955,5,0,0:0:0:0:
72,104,93170,2,2,B|16:144|16:184,1,90
88,192,93598,2,0,B|152:256|208:152|264:200,1,180,0|4,0:0|0:0,0:0:0:0:
480,40,94669,5,2,0:0:0:0:
480,128,94884,2,0,B|480:240,1,90,0|4,0:0|0:0,0:0:0:0:
480,304,95312,2,0,B|376:304,1,90,2|0,0:0|0:0,0:0:0:0:
296,304,95741,1,4,0:0:0:0:
256,192,96383,12,4,98740,0:0:0:0:
176,368,99169,6,4,B|136:264,1,90
256,240,99598,1,0,0:0:0:0:
256,240,99812,1,0,0:0:0:0:
336,368,100026,2,4,B|376:264,1,90
176,16,100883,6,4,B|136:120,1,90
256,144,101312,1,0,0:0:0:0:
256,144,101526,1,0,0:0:0:0:
336,16,101740,2,4,B|376:120,1,90
256,344,102383,5,0,0:0:0:0:
256,344,102597,1,8,0:0:0:0:
256,344,102811,1,0,0:0:0:0:
256,32,103240,5,0,0:0:0:0:
184,88,103454,2,0,B|184:192,1,90
328,88,103882,2,0,B|328:192,1,90
256,232,104311,2,0,B|256:128,1,90
256,142,104739,1,4,0:0:0:0:
256,232,104954,2,0,B|256:336,1,90
256,232,105382,1,4,0:0:0:0:
256,144,105596,2,0,B|256:240,1,90
256,320,106025,1,4,0:0:0:0:
176,272,106239,5,0,0:0:0:0:
88,280,106453,1,4,0:0:0:0:
112,192,106668,2,4,B|264:72,1,180
256,256,107525,5,0,0:0:0:0:
256,256,107739,1,8,0:0:0:0:
336,272,107954,5,0,0:0:0:0:
424,280,108168,1,4,0:0:0:0:
400,192,108383,2,4,B|248:72,1,180
256,336,109239,5,0,0:0:0:0:
256,248,109453,1,8,0:0:0:0:
256,160,109667,1,8,0:0:0:0:
152,8,110096,5,0,0:0:0:0:
96,72,110310,2,0,B|96:176,1,90
144,232,110739,2,0,B|144:336,1,90
144,232,111167,2,0,B|144:120,1,90
216,88,111596,1,4,0:0:0:0:
288,144,111810,1,0,0:0:0:0:
360,88,112024,1,0,0:0:0:0:
432,144,112238,2,0,B|432:248,1,90,4|0,0:0|0:0,0:0:0:0:
344,256,112667,2,4,B|288:280|280:232|240:272,1,90,0|4,0:0|0:0,0:0:0:0:
192,40,126808,5,0,0:0:0:0:
104,72,127022,2,0,B|40:128|160:144|80:240,2,180,4|2|2,0:0|0:0|0:0,0:0:0:0:
176,128,128093,1,2,0:0:0:0:
256,96,128307,2,0,B|296:120|320:80|344:104,1,90,0|4,0:0|0:0,0:0:0:0:
416,56,128736,2,0,B|504:136|408:216,2,180,4|2|2,0:0|0:0|0:0,0:0:0:0:
376,136,129807,1,2,0:0:0:0:
256,272,130236,5,0,0:0:0:0:
192,208,130450,2,2,B|80:288|200:352,1,180,4|2,0:0|0:0,0:0:0:0:
256,272,131093,1,0,0:0:0:0:
320,208,131307,2,2,B|432:288|312:352,1,180
256,272,131950,1,4,0:0:0:0:
256,8,132164,2,0,B|256:192,2,180,4|2|2,0:0|0:0|0:0,0:0:0:0:
256,8,133235,1,2,0:0:0:0:
168,40,133450,1,0,0:0:0:0:
88,80,133664,1,0,0:0:0:0:
32,152,133878,6,0,B|-24:232|40:336,3,180,8|2|8|2,0:0|0:0|0:0|0:0,0:0:0:0:
480,152,135592,6,0,B|536:232|472:336,3,180,8|2|8|2,0:0|0:0|0:0|0:0,0:0:0:0:
296,40,137306,6,0,B|248:0|200:56,6,90,8|0|2|2|8|0|2,0:0|0:0|0:0|0:0|0:0|0:0|0:0,0:0:0:0:
256,192,138806,5,8,0:0:0:0:
216,344,139020,6,0,B|264:384|312:328,6,90,8|0|2|2|8|0|2,0:0|0:0|0:0|0:0|0:0|0:0|0:0,0:0:0:0:
256,192,140520,5,2,0:0:0:0:
256,104,140734,1,4,0:0:0:0:
256,16,140949,1,0,0:0:0:0:
168,32,141163,6,2,B|64:120|176:176,1,180,2|4,0:0|0:0,0:0:0:0:
256,104,141806,1,0,0:0:0:0:
344,32,142020,2,2,B|448:120|336:176,1,180
256,200,142663,5,4,0:0:0:0:
256,288,142877,1,0,0:0:0:0:
256,200,143091,1,0,0:0:0:0:
256,112,143305,1,4,0:0:0:0:
64,304,143948,5,0,0:0:0:0:
64,216,144162,2,2,B|64:96|64:96|144:96,1,180,4|2,0:0|0:0,0:0:0:0:
216,96,144805,1,0,0:0:0:0:
172,174,145019,2,2,B|172:278,2,90,4|2|2,0:0|0:0|0:0,0:0:0:0:
264,176,145662,1,0,0:0:0:0:
312,96,145876,2,2,B|408:96,3,90,2|4|0|4,0:0|0:0|0:0|0:0,0:0:0:0:
368,176,146733,2,0,B|472:176,2,90,4|0|4,0:0|0:0|0:0,0:0:0:0:
256,312,147590,5,4,0:0:0:0:
256,224,147805,1,0,0:0:0:0:
256,136,148019,1,2,0:0:0:0:
176,176,148233,2,0,B|88:232|224:256|144:344,1,180,4|0,0:0|0:0,0:0:0:0:
72,288,148876,1,4,0:0:0:0:
256,312,149304,5,4,0:0:0:0:
256,224,149519,1,0,0:0:0:0:
256,136,149733,1,2,0:0:0:0:
336,176,149947,2,0,B|424:232|288:256|368:344,1,180,4|4,0:0|0:0,0:0:0:0:
432,280,150590,1,4,0:0:0:0:
256,40,151019,6,0,B|256:232,3,180,8|2|8|2,0:0|0:0|0:0|0:0,0:0:0:0:
256,220,152733,2,0,B|256:324,6,90,8|0|2|2|8|2|8,0:0|0:0|0:0|0:0|0:0|0:0|0:0,0:0:0:0:
256,136,154232,6,0,B|256:80,2,45,0|0|4,0:0|0:0|0:0,0:0:0:0:
168,160,154661,1,0,0:0:0:0:
216,232,154875,2,0,B|136:304,1,90,0|4,0:0|0:0,0:0:0:0:
256,136,155732,5,4,0:0:0:0:
256,136,155946,1,0,0:0:0:0:
344,160,156161,1,4,0:0:0:0:
296,232,156375,2,0,B|376:304,1,90,0|0,0:0|0:0,0:0:0:0:
362,292,156803,1,4,0:0:0:0:
256,32,157232,5,0,0:0:0:0:
256,32,157446,1,8,0:0:0:0:
256,32,157660,1,0,0:0:0:0:
256,344,158089,5,0,0:0:0:0:
192,280,158303,2,0,B|160:232|200:208|176:184,1,90,0|0,0:0|0:0,0:0:0:0:
112,136,158732,1,0,0:0:0:0:
184,80,158946,2,0,B|232:72|240:112|272:112,1,90,0|0,0:0|0:0,0:0:0:0:
360,104,159374,1,0,0:0:0:0:
320,184,159589,2,0,B|288:224|360:256|312:280,1,90,4|0,0:0|0:0,0:0:0:0:
392,320,160017,1,0,0:0:0:0:
448,248,160231,1,4,0:0:0:0:
480,160,160446,2,0,B|496:88|480:56,1,90,0|0,0:0|0:0,0:0:0:0:
424,0,160874,1,4,0:0:0:0:
352,56,161089,5,0,0:0:0:0:
392,136,161303,1,4,0:0:0:0:
352,216,161517,1,4,0:0:0:0:
304,136,161731,1,0,0:0:0:0:
256,56,161946,2,0,B|168:144|264:224,1,180,4|0,0:0|0:0,0:0:0:0:
304,136,162588,1,8,0:0:0:0:
160,56,162803,5,0,0:0:0:0:
120,136,163017,1,4,0:0:0:0:
160,216,163231,1,4,0:0:0:0:
208,136,163445,1,0,0:0:0:0:
256,56,163660,2,0,B|344:144|248:224,1,180,4|0,0:0|0:0,0:0:0:0:
208,136,164302,1,8,0:0:0:0:
208,136,164517,1,8,0:0:0:0:
464,320,164945,5,0,0:0:0:0:
464,232,165159,2,0,B|464:128,1,90
464,48,165588,2,0,B|352:48,1,90,0|0,0:0|0:0,0:0:0:0:
376,136,166016,1,0,0:0:0:0:
376,224,166231,1,0,0:0:0:0:
376,312,166445,2,0,B|272:312,1,90,4|0,0:0|0:0,0:0:0:0:
288,224,166873,2,0,B|208:224|208:224|184:224,1,90,0|4,0:0|0:0,0:0:0:0:
200,136,167302,1,0,0:0:0:0:
110,225,167516,2,4,B|222:225,1,90,0|4,0:0|0:0,0:0:0:0:
472,328,168373,5,0,0:0:0:0:
472,240,168587,2,0,B|472:184,2,45
392,272,169016,2,0,B|280:272,1,90
304,184,169444,1,8,0:0:0:0:
304,360,169659,1,8,0:0:0:0:
40,328,170087,5,0,0:0:0:0:
40,240,170301,2,0,B|40:184,2,45
120,272,170730,2,0,B|232:272,1,90
208,184,171158,1,8,0:0:0:0:
208,360,171373,1,8,0:0:0:0:
256,0,171801,5,0,0:0:0:0:
232,88,172016,2,0,B|288:88,2,45
168,152,172444,1,0,0:0:0:0:
344,152,172658,1,0,0:0:0:0:
256,280,172873,1,0,0:0:0:0:
256,192,173087,2,0,B|256:288,1,90,0|4,0:0|0:0,0:0:0:0:
168,280,173515,2,0,B|56:280,1,90
168,280,173944,1,4,0:0:0:0:
344,280,174158,1,0,0:0:0:0:
344,280,174372,2,0,B|448:280,1,90,0|4,0:0|0:0,0:0:0:0:
472,56,175229,5,0,0:0:0:0:
472,144,175443,2,0,B|472:200,3,45
440,224,175872,2,0,B|328:224,1,90
256,192,176301,1,8,0:0:0:0:
256,192,176408,1,0,0:0:0:0:
256,192,176515,1,8,0:0:0:0:
40,56,176943,5,0,0:0:0:0:
40,144,177157,2,0,B|40:200,3,45
72,224,177586,2,0,B|184:224,1,90
256,192,178015,1,8,0:0:0:0:
256,192,178122,1,0,0:0:0:0:
256,192,178229,1,8,0:0:0:0:
256,384,178657,5,0,0:0:0:0:
232,296,178872,2,0,B|288:296,2,45
168,232,179300,1,0,0:0:0:0:
344,232,179514,1,0,0:0:0:0:
256,104,179729,1,0,0:0:0:0:
256,192,179943,2,0,B|256:96,1,90,0|4,0:0|0:0,0:0:0:0:
168,104,180371,2,0,B|56:104,1,90
168,104,180800,1,4,0:0:0:0:
344,104,181014,1,0,0:0:0:0:
344,104,181228,2,0,B|448:104,1,90,0|4,0:0|0:0,0:0:0:0:
256,192,181657,1,0,0:0:0:0:
256,192,181871,12,0,187870,0:0:0:0:
256,192,188299,5,0,0:0:0:0:
256,8,188727,1,4,0:0:0:0:
176,48,188942,2,0,B|176:152,1,90
256,192,189370,1,0,0:0:0:0:
336,336,189584,2,0,B|336:232,1,90
256,192,190013,1,0,0:0:0:0:
256,80,190227,1,4,0:0:0:0:
96,256,190656,6,0,B|96:152,1,90
256,192,191084,1,0,0:0:0:0:
416,256,191298,2,0,B|416:152,1,90
256,192,191727,1,0,0:0:0:0:
256,32,191941,5,4,0:0:0:0:
