osu file format v7

[General]
AudioFilename: 02 Sell Your Soul.mp3
AudioLeadIn: 0
PreviewTime: -1
Countdown: 1
SampleSet: Soft
StackLeniency: 0.7
Mode: 0
LetterboxInBreaks: 1

[Editor]
DistanceSpacing: 1
BeatDivisor: 8
GridSize: 8

[Metadata]
Title:Sell Your Soul
Artist:Hollywood Undead
Creator:v0xtrot
Version:Chill
Source:
Tags:

[Difficulty]
HPDrainRate:2
CircleSize:4
OverallDifficulty:3
SliderMultiplier:1.6
SliderTickRate:2

[Events]
//Background and Video events
0,0,"HU_bird_by_125427.jpg"
//Break Periods
//Storyboard Layer 0 (Background)
//Storyboard Layer 1 (Fail)
//Storyboard Layer 2 (Pass)
//Storyboard Layer 3 (Foreground)
//Storyboard Sound Samples
//Background Colour Transformations
3,100,163,162,255

[TimingPoints]
7039.59825443217,428.510212826739,4,2,0,100,1,0
54389,-100,4,1,0,100,0,0

[Colours]
Combo1 : 163,7,108
Combo2 : 233,238,11

[HitObjects]
256,192,13895,1,4
160,320,14324,2,0,B|64:288|88:176,2,160
256,192,15609,1,2
352,64,16038,2,0,B|448:96|424:208,2,160
192,32,17323,5,4
112,56,17538,2,2,B|24:80|24:80|24:160,1,160
24,224,18180,2,2,B|48:272|48:272|80:280,1,80
256,280,18823,5,4
400,328,19252,2,2,B|488:304|488:304|488:224,1,160
488,160,19894,2,2,B|464:112|464:112|432:104,1,80
256,104,20537,6,0,B|256:200,1,80,0|4
256,264,20966,2,0,B|256:368,3,80,0|0|0|2
328,320,21823,1,2
400,344,22037,2,2,B|480:320,1,80
440,248,22465,6,0,B|440:112,3,80
360,168,23322,1,2
360,248,23537,2,2,B|312:272|304:224|264:248,2,80
360,328,24180,5,4
280,336,24394,2,0,B|192:336,2,80,2|2|0
280,256,25037,2,0,B|280:168,2,80,2|2|0
200,256,25679,5,0
120,256,25894,2,0,B|32:256,6,80,0|0|0|0|0|0|4
120,176,27393,1,0
120,96,27608,5,4
280,96,28036,2,0,B|280:272,1,160
440,256,28893,2,0,B|440:80,1,160
296,16,29750,2,0,B|480:16,1,160
104,272,31464,5,0
104,112,31893,2,2,B|240:16,1,160
256,176,32750,1,0
408,112,33178,2,2,B|272:16,1,160
256,336,34464,5,0
256,176,34892,2,0,B|256:0,2,160
256,336,36178,2,2,B|256:168,1,160
256,96,36821,1,2
192,48,37035,2,2,B|264:-32|338:64,2,160,2|2|4
160,200,38320,5,0
72,336,38749,1,2
232,336,39177,1,2
320,200,39606,1,0
400,336,40034,2,0,B|504:200,1,160,0|2
208,16,41534,5,0
208,96,41748,2,0,B|208:184,2,80
344,176,42605,2,2,B|248:176,1,80
304,368,43248,5,0
304,288,43462,2,0,B|304:200,2,80
224,288,44105,1,2
168,208,44319,2,0,B|264:208,1,80,0|2
256,48,44962,6,0,B|344:48,2,80
176,48,45605,2,2,B|88:56|56:152,1,160
48,224,46248,1,0
80,296,46462,2,0,B|112:336|168:320,1,80
232,320,46891,2,2,B|232:224,2,80
312,320,47533,2,0,B|384:320|400:288,1,80,0|2
256,96,48390,5,0
176,112,48605,2,2,B|136:152|168:160|136:200,1,80
224,184,49033,1,2
368,112,49462,2,0,B|336:200,1,80,0|2
248,320,50104,6,0,B|200:344|168:288,1,80
232,240,50533,2,2,B|184:216|144:232,1,80
104,288,50961,2,0,B|64:248|88:200,1,80,0|2
256,48,51818,5,0
312,104,52033,2,0,B|312:192,1,80
232,160,52461,2,0,B|232:256,1,80
232,320,52890,2,0,B|328:320,1,80
392,320,53318,1,4
392,240,53532,2,0,B|304:240,2,80,4|0|0
472,240,54175,1,4
472,80,54604,6,4,B|376:80,1,80
440,144,55032,2,4,B|277:142,1,160
280,64,55675,1,4
40,304,56318,6,4,B|136:304,1,80
72,240,56746,2,4,B|235:242,1,160
232,320,57389,1,4
448,0,58675,5,0
448,80,58889,2,0,B|448:168,1,80
448,240,59317,2,0,B|448:328,1,80
368,320,59746,2,0,B|368:232,1,80
288,240,60174,2,0,B|200:240,4,80,4|0|0|4|0
368,240,61246,2,0,B|368:152,1,80,0|4
448,160,61674,5,4
368,160,61888,2,4,B|192:160,1,160
208,80,62531,1,4
64,224,63388,5,4
144,224,63602,2,4,B|320:224,1,160
304,304,64245,1,4
0,16,65531,5,0
0,96,65745,2,0,B|0:184,1,80
0,256,66174,2,0,B|0:344,1,80
80,336,66602,2,0,B|80:240,1,80
80,176,67031,2,0,B|80:128,2,40,4|0|0
80,256,67459,2,0,B|168:256,1,80,0|4
160,176,67888,2,0,B|256:176,1,80
240,256,68316,1,4
