osu file format v14

[General]
AudioFilename: p Trai Th Mi C Nhiu a Yu Hoaprox-Remix.mp3
AudioLeadIn: 0
PreviewTime: 67800
Countdown: 0
SampleSet: Normal
StackLeniency: 0.7
Mode: 0
LetterboxInBreaks: 1
WidescreenStoryboard: 0

[Editor]
DistanceSpacing: 2
BeatDivisor: 4
GridSize: 4
TimelineZoom: 1.8

[Metadata]
Title:Dep trai thi moi co nhieu dua yeu
TitleUnicode:Đẹp trai thì mới có nhiều đứa yêu
Artist:Hoaprox
ArtistUnicode:Hoaprox
Creator:DarkSF
Version:Ex D
Source:
Tags:dttmcndy <3
BeatmapID:1475282
BeatmapSetID:696462

[Difficulty]
HPDrainRate:4
CircleSize:4
OverallDifficulty:5
ApproachRate:9.6
SliderMultiplier:3
SliderTickRate:1

[Events]
//Background and Video events
0,0,"05fdiver.png",0,0
//Break Periods
2,46218,50431
//Storyboard Layer 0 (Background)
//Storyboard Layer 1 (Fail)
//Storyboard Layer 2 (Pass)
//Storyboard Layer 3 (Foreground)
//Storyboard Sound Samples

[TimingPoints]
11565,468.75,4,1,1,100,1,0
15315,-66.6666666666667,4,1,1,100,0,0
15783,-100,4,1,1,100,0,0
16252,-133.333333333333,4,1,1,100,0,0
17190,-200,4,1,1,100,0,0
19065,-66.6666666666667,4,1,1,100,0,0
19533,-50,4,1,1,100,0,0
20471,-66.6666666666667,4,1,1,100,0,0
21877,-133.333333333333,4,1,1,100,0,0
22815,-50,4,1,1,100,0,0
23283,-66.6666666666667,4,1,1,100,0,0
23752,-200,4,1,1,100,0,0
24221,-66.6666666666667,4,1,1,100,0,0
26330,-100,4,1,1,100,0,0
28440,-200,4,1,1,100,0,0
29611,-100,4,1,1,100,0,0
30783,-200,4,1,1,100,0,0
34065,-200,4,1,1,100,0,0
34533,-50,4,1,1,100,0,0
35705,-200,4,1,1,100,0,0
39455,-66.6666666666667,4,1,1,100,0,0
39690,-200,4,1,1,100,0,0
39924,-66.6666666666667,4,1,1,100,0,0
40158,-200,4,1,1,100,0,0
40393,-66.6666666666667,4,1,1,100,0,0
40627,-200,4,1,1,100,0,0
40861,-66.6666666666667,4,1,1,100,0,0
41096,-200,4,1,1,100,0,0
41330,-66.6666666666667,4,1,1,100,0,0
41565,-50,4,1,1,100,0,0
42033,-100,4,1,1,100,0,0
43440,-200,4,1,1,100,0,0
61721,-100,4,1,1,100,0,0
67580,-50,4,1,1,100,0,0
68283,-200,4,1,1,100,0,0
68518,-66.6666666666667,4,1,1,100,0,0
73908,-200,4,1,1,100,0,0
74377,-133.333333333333,4,1,1,100,0,0
74611,-100,4,1,1,100,0,0
74846,-80,4,1,1,100,0,0
75080,-66.6666666666667,4,1,1,100,0,0
75315,-57.1428571428571,4,1,1,100,0,0
79065,-50,4,1,1,100,0,0
79533,-133.333333333333,4,1,1,100,0,0
82580,-200,4,1,1,100,0,0
82815,-50,4,1,1,100,0,0
83283,-200,4,1,1,100,0,0
85861,-50,4,1,1,100,0,0
87971,-200,4,1,1,100,0,0
90783,-66.6666666666667,4,1,1,100,0,0
91721,-200,4,1,1,100,0,0
97815,-50,4,1,1,100,0,0
98283,-133.333333333333,4,1,1,100,0,0
98752,-50,4,1,1,100,0,0
99221,-100,4,1,1,100,0,0
99690,-66.6666666666667,4,1,1,100,0,0
100627,-200,4,1,1,100,0,0
101330,-50,4,1,1,100,0,0
102971,-66.6666666666667,4,1,1,100,0,0
103440,-50,4,1,1,100,0,0
104846,-100,4,1,1,100,0,0
105315,-200,4,1,1,100,0,0
106721,-133.333333333333,4,1,1,100,0,0
107190,-200,4,1,1,100,0,0
112815,-100,4,1,1,100,0,0

[Colours]
Combo1 : 128,128,128
Combo2 : 255,0,0
Combo3 : 255,128,0
Combo4 : 255,255,0
Combo5 : 0,255,0
Combo6 : 0,0,255
Combo7 : 128,0,255

[HitObjects]
68,72,11565,6,0,B|168:116|168:116|168:116|192:56|192:56|328:120,5,300,0|0|0|0|0|0,1:0|1:0|1:0|1:0|1:0|1:0,1:0:0:0:
204,152,14377,1,0,0:0:0:0:
292,236,14611,2,0,L|308:328,1,75
344,64,14846,1,8,0:2:0:0:
372,88,14963,1,0,0:0:0:0:
392,120,15080,2,8,P|408:156|400:200,1,75,8|8,0:2|0:2,0:2:0:0:
272,252,15315,6,0,P|168:180|36:316,1,337.500012874604
148,100,15783,2,0,L|176:12,1,75
156,280,16018,2,0,L|128:368,1,75
408,208,16252,2,8,L|484:184,1,56.2500021457673,8|8,3:2|0:2,0:2:0:0:
336,36,16721,2,8,P|312:112|328:192,1,112.500004291535,8|8,0:3|0:3,0:3:0:0:
376,340,17190,6,0,L|416:356,1,37.5
280,236,17658,2,0,L|296:280,1,37.5
300,100,18127,2,0,L|280:164,1,37.5
452,40,18361,1,0,0:0:0:0:
160,196,18596,2,8,L|152:260,1,37.5,8|8,0:3|0:3,0:3:0:0:
48,240,18830,2,4,L|44:288,1,37.5,4|4,0:3|0:3,0:3:0:0:
396,88,19065,6,0,B|368:176|448:320|448:320|392:304|336:332|312:316,1,337.500012874604
72,40,19533,2,0,P|152:72|272:88,1,150
104,172,19768,2,0,P|184:204|304:220,1,150
16,264,20002,1,4,0:2:0:0:
96,188,20471,6,0,P|68:96|80:32,1,112.500004291535
192,252,20705,1,0,0:0:0:0:
408,248,20940,2,0,P|320:256|248:244,1,112.500004291535
352,64,21408,1,0,0:0:0:0:
172,52,21877,6,0,P|136:72|128:112,1,56.2500021457673
132,328,22111,1,8,0:3:0:0:
400,328,22346,1,0,0:0:0:0:
400,68,22580,1,8,0:2:0:0:
136,40,22815,6,8,B|204:72|204:72|188:152|188:152|248:188|248:188|216:280|216:280|264:316|264:316|228:376,1,450,8|8,0:2|0:2,0:2:0:0:
52,36,23283,2,8,P|44:120|56:168,1,112.500004291535,8|8,0:3|0:3,0:3:0:0:
64,352,23518,2,4,P|84:252|76:208,1,112.500004291535,4|4,0:3|0:3,0:3:0:0:
132,36,23752,2,0,L|172:40,1,37.5,0|0,0:2|0:2,0:2:0:0:
64,96,24221,6,0,P|76:120|124:80,1,112.500004291535
312,304,24455,2,0,P|340:264|344:304,1,112.500004291535
272,200,24690,5,0,0:0:0:0:
248,32,25158,1,0,0:0:0:0:
296,368,25627,1,0,0:0:0:0:
272,200,25861,1,0,0:0:0:0:
248,32,26096,1,8,0:3:0:0:
260,120,26213,1,0,0:0:0:0:
272,200,26330,2,8,L|280:268|288:304,1,75,8|8,0:2|0:2,0:2:0:0:
296,368,26565,5,0,0:0:0:0:
252,40,27033,1,0,0:0:0:0:
132,328,27268,1,0,0:0:0:0:
392,112,27502,1,0,0:0:0:0:
92,96,27971,1,0,0:0:0:0:
416,288,28205,1,8,0:3:0:0:
56,320,28440,6,8,L|72:284,1,37.5,8|8,0:2|0:2,0:2:0:0:
56,320,28908,2,0,L|76:280,1,37.5
200,48,29377,1,0,0:0:0:0:
208,108,29611,2,0,P|212:140|192:184,1,75
312,48,29846,1,8,0:3:0:0:
332,104,29963,1,0,0:0:0:0:
356,160,30080,1,8,0:3:0:0:
380,216,30197,1,0,0:0:0:0:
404,272,30315,2,2,L|432:356,1,75,2|2,0:3|0:3,0:3:0:0:
120,296,30783,6,8,L|72:324,1,37.5,8|8,0:2|0:2,0:2:0:0:
76,40,31018,2,8,L|112:68,1,37.5,8|8,0:3|0:3,0:3:0:0:
72,184,31252,2,4,L|16:184,1,37.5,4|4,0:2|0:2,0:2:0:0:
404,352,31721,6,8,L|456:368,1,37.5,8|8,0:2|0:2,0:2:0:0:
296,264,31955,2,8,L|324:308,1,37.5,8|8,0:3|0:3,0:3:0:0:
256,140,32190,2,8,L|264:196,1,37.5,8|8,0:2|0:2,0:2:0:0:
300,20,32424,2,8,L|280:68,1,37.5,8|8,0:3|0:3,0:3:0:0:
404,352,32658,6,8,L|456:368,1,37.5,8|8,0:2|0:2,0:2:0:0:
296,264,32893,2,8,L|324:308,1,37.5,8|8,0:3|0:3,0:3:0:0:
300,20,33127,2,8,L|280:68,1,37.5,8|8,0:2|0:2,0:2:0:0:
256,140,33361,6,4,L|264:196,1,37.5,4|4,0:2|0:2,0:2:0:0:
419,178,33596,2,8,L|399:226,1,37.5,8|8,0:3|0:3,0:3:0:0:
352,36,33830,2,4,L|360:92,1,37.5,4|4,0:2|0:2,0:2:0:0:
188,264,34065,2,2,P|136:286|48:304,1,112.5,2|2,0:3|0:3,0:3:0:0:
280,344,34533,2,8,P|328:248|316:172,1,150,8|8,0:2|0:2,0:2:0:0:
32,140,34768,2,8,P|144:156|208:92,1,150,8|8,0:3|0:3,0:3:0:0:
420,52,35002,2,8,P|304:120|264:168,1,150,8|8,0:2|0:2,0:2:0:0:
300,336,35236,1,8,0:3:0:0:
244,272,35354,1,8,0:3:0:0:
300,336,35471,2,8,L|336:180,1,150,8|8,0:2|0:2,0:2:0:0:
40,48,35705,6,8,L|80:76,1,37.5,8|8,0:3|0:3,0:3:0:0:
160,124,35940,2,8,L|200:132,1,37.5,8|8,0:2|0:2,0:2:0:0:
312,132,36174,2,8,L|368:124,1,37.5,8|8,0:3|0:3,0:3:0:0:
432,56,36408,2,8,L|464:24,1,37.5,8|8,0:2|0:2,0:2:0:0:
40,48,36643,6,8,L|80:76,1,37.5,8|8,0:3|0:3,0:3:0:0:
160,124,36877,2,8,L|200:132,1,37.5,8|8,0:2|0:2,0:2:0:0:
432,56,37111,2,8,L|464:24,1,37.5,8|8,0:3|0:3,0:3:0:0:
312,132,37346,6,4,L|368:124,1,37.5,4|4,0:2|0:2,0:2:0:0:
380,220,37580,2,4,L|436:212,1,37.5,4|4,0:3|0:3,0:3:0:0:
200,240,37815,5,8,0:3:0:0:
140,196,37932,1,0,0:0:0:0:
72,224,38049,1,0,0:0:0:0:
60,296,38166,1,0,0:0:0:0:
116,344,38283,1,8,0:2:0:0:
152,348,38400,1,0,0:0:0:0:
188,352,38518,1,0,0:0:0:0:
224,356,38635,1,0,0:0:0:0:
288,308,38752,5,8,0:3:0:0:
324,312,38869,1,0,0:0:0:0:
360,316,38986,1,0,0:0:0:0:
396,320,39104,1,0,0:0:0:0:
432,324,39221,2,8,L|424:272,1,37.5,8|8,0:2|0:2,0:2:0:0:
264,32,39455,2,8,L|284:160,1,112.500004291535,8|8,0:3|0:3,0:3:0:0:
426,286,39690,2,8,L|418:234,1,37.5,8|8,0:2|0:2,0:2:0:0:
281,143,39924,2,8,L|301:271,1,112.500004291535,8|8,0:3|0:3,0:3:0:0:
420,248,40158,6,8,L|412:196,1,37.5,8|8,0:2|0:2,0:2:0:0:
156,212,40393,2,8,L|176:340,1,112.500004291535,8|8,0:3|0:3,0:3:0:0:
414,210,40627,2,8,L|406:158,1,37.5,8|8,0:2|0:2,0:2:0:0:
156,212,40861,2,8,L|136:84,1,112.500004291535,8|8,0:3|0:3,0:3:0:0:
408,172,41096,2,8,L|400:120,1,37.5,8|8,0:2|0:2,0:2:0:0:
52,64,41330,2,8,L|72:192,1,112.500004291535,8|8,0:3|0:3,0:3:0:0:
439,323,41565,6,4,B|409:292|387:251|387:251|367:295|335:299|303:299|279:279|267:247|279:211|279:211|231:223|199:211|191:179|191:143|207:123|255:123|271:135,1,450,4|4,0:3|0:3,0:3:0:0:
250,128,42033,6,4,B|293:81|318:40|318:40|350:92|414:136,1,225,4|4,0:2|0:2,0:2:0:0:
272,328,42502,1,0,0:0:0:0:
272,328,42971,1,0,0:0:0:0:
76,320,43440,6,0,L|96:284,1,37.5
204,288,43908,2,0,L|224:252,1,37.5
104,120,44377,1,0,0:0:0:0:
48,184,44611,1,0,0:0:0:0:
160,52,44846,1,8,0:2:0:0:
212,120,44963,1,8,0:2:0:0:
268,184,45080,1,8,0:2:0:0:
156,184,45197,1,8,0:2:0:0:
392,152,45315,2,0,B|400:212|400:212|448:240,2,112.5
256,192,50940,12,0,52581,0:0:0:0:
96,76,52815,5,0,0:0:0:0:
264,168,53049,1,0,0:0:0:0:
124,200,53283,1,0,0:0:0:0:
224,48,53518,1,0,0:0:0:0:
100,80,53752,5,0,0:0:0:0:
260,164,53986,1,0,0:0:0:0:
128,196,54220,1,8,0:2:0:0:
160,112,54338,1,0,0:0:0:0:
220,52,54455,1,8,0:2:0:0:
456,320,54690,5,0,0:0:0:0:
288,228,54924,1,0,0:0:0:0:
428,196,55158,1,0,0:0:0:0:
328,348,55393,1,0,0:0:0:0:
460,324,55627,5,0,0:0:0:0:
284,224,55861,1,0,0:0:0:0:
432,192,56096,2,8,L|416:240,1,37.5,8|8,0:3|0:3,0:3:0:0:
324,352,56330,2,8,L|336:312,1,37.5,8|8,0:3|0:3,0:3:0:0:
408,24,56565,5,0,0:0:0:0:
316,192,56799,1,0,0:0:0:0:
284,52,57033,2,8,L|336:72,1,37.5,8|8,0:3|0:3,0:3:0:0:
436,152,57268,2,8,L|392:140,1,37.5,8|8,0:3|0:3,0:3:0:0:
280,48,57502,5,8,0:2:0:0:
352,112,57619,1,8,0:3:0:0:
440,156,57736,1,8,0:2:0:0:
284,52,57970,1,8,0:2:0:0:
352,112,58088,1,8,0:3:0:0:
436,152,58205,1,8,0:2:0:0:
104,360,58440,5,0,0:0:0:0:
196,192,58674,1,0,0:0:0:0:
228,332,58908,1,0,0:0:0:0:
76,232,59143,1,0,0:0:0:0:
100,364,59377,5,0,0:0:0:0:
200,188,59611,1,0,0:0:0:0:
232,336,59846,2,8,L|252:288,1,37.5,8|8,0:2|0:2,0:2:0:0:
72,228,60080,2,8,L|60:180,1,37.5,8|8,0:2|0:2,0:2:0:0:
176,152,60315,5,0,0:0:0:0:
344,244,60549,1,0,0:0:0:0:
204,276,60783,1,0,0:0:0:0:
304,124,61018,1,0,0:0:0:0:
172,148,61252,1,0,0:0:0:0:
348,252,61486,1,0,0:0:0:0:
64,60,61721,6,8,L|76:156,1,75,8|8,0:3|0:3,0:3:0:0:
84,208,61955,1,8,0:2:0:0:
96,280,62072,1,0,0:0:0:0:
108,356,62190,1,8,0:2:0:0:
288,304,62424,2,0,L|212:360,1,75
368,64,62658,1,0,0:0:0:0:
436,252,62893,2,8,P|440:280|476:312,1,75,8|8,0:3|0:3,0:3:0:0:
52,40,63127,5,8,0:2:0:0:
384,336,63361,1,8,0:2:0:0:
440,48,63596,1,8,0:2:0:0:
96,340,63830,1,8,0:2:0:0:
52,40,64065,1,8,0:2:0:0:
144,24,64299,5,0,0:0:0:0:
136,32,64416,1,0,0:0:0:0:
128,40,64533,1,8,0:3:0:0:
164,88,64650,1,0,0:0:0:0:
220,108,64768,1,0,0:0:0:0:
280,100,64885,1,0,0:0:0:0:
328,64,65002,1,8,0:3:0:0:
384,80,65119,1,0,0:0:0:0:
424,124,65236,1,0,0:0:0:0:
436,184,65354,1,0,0:0:0:0:
428,244,65471,2,8,B|336:264|304:328|304:328|244:264|132:240,1,300,8|8,0:3|0:3,0:3:0:0:
112,292,66057,5,0,0:0:0:0:
100,232,66174,1,8,0:2:0:0:
88,172,66291,1,0,0:0:0:0:
76,112,66408,1,0,0:0:0:0:
64,52,66525,1,0,0:0:0:0:
136,28,66643,2,0,P|248:28|288:36,1,150,0|0,0:2|0:2,0:2:0:0:
316,136,66994,1,0,0:0:0:0:
352,88,67111,1,0,0:2:0:0:
412,84,67229,1,0,0:0:0:0:
456,124,67346,1,0,0:2:0:0:
456,184,67463,1,0,0:0:0:0:
448,312,67580,2,8,P|388:288|224:280,1,150,8|8,0:2|0:2,0:2:0:0:
112,48,67815,6,8,P|104:208|140:372,1,300,8|8,0:3|0:3,0:3:0:0:
152,228,68283,2,4,L|172:188,1,37.5,4|4,0:2|0:2,0:2:0:0:
180,92,68518,2,0,P|296:168|368:96,2,225.000008583069
272,72,69104,1,0,0:0:0:0:
300,156,69221,1,8,0:3:0:0:
272,240,69338,1,0,0:0:0:0:
320,316,69455,1,8,0:3:0:0:
408,292,69572,1,0,0:0:0:0:
176,308,69690,5,8,0:2:0:0:
92,276,69807,1,8,0:2:0:0:
176,240,69924,1,8,0:2:0:0:
92,208,70041,1,8,0:2:0:0:
176,176,70158,2,0,B|232:136|168:0|220:128,1,112.500004291535
288,88,70627,2,0,L|432:168,1,112.500004291535
368,252,70861,1,0,0:0:0:0:
192,144,71096,5,8,0:3:0:0:
32,112,71213,1,8,0:3:0:0:
288,328,71330,1,8,0:3:0:0:
128,296,71447,1,8,0:3:0:0:
444,248,71565,2,0,B|464:184|460:160|460:160|436:164|432:196,1,112.500004291535
72,72,72033,5,8,0:2:0:0:
72,184,72150,1,0,0:0:0:0:
132,280,72268,1,0,0:0:0:0:
240,312,72385,1,0,0:0:0:0:
348,288,72502,1,8,0:2:0:0:
424,204,72619,1,0,0:0:0:0:
440,156,72736,1,0,0:0:0:0:
436,124,72854,1,0,0:0:0:0:
428,48,72971,1,8,0:2:0:0:
328,100,73088,1,0,0:0:0:0:
220,72,73205,1,0,0:0:0:0:
128,136,73322,1,0,0:0:0:0:
104,248,73440,2,8,B|72:192|72:192|104:140,1,112.500004291535,8|8,0:2|0:2,0:2:0:0:
260,28,73908,6,0,L|320:52,1,37.5
256,80,74377,2,0,L|184:116,1,56.2500021457673
256,148,74611,2,0,L|360:188,1,75
252,208,74846,2,8,L|152:248,1,93.75,8|8,0:3|0:3,0:3:0:0:
260,268,75080,2,8,L|380:320,1,112.500004291535,8|8,0:3|0:3,0:3:0:0:
256,336,75315,2,8,L|112:364,1,131.250001251698,8|8,0:2|0:2,0:2:0:0:
228,252,75783,5,8,0:2:0:0:
128,224,75900,1,0,0:0:0:0:
108,120,76018,1,8,0:3:0:0:
36,200,76135,1,0,0:0:0:0:
108,120,76252,1,8,0:2:0:0:
232,144,76369,1,0,0:0:0:0:
192,36,76486,1,8,0:3:0:0:
108,120,76604,1,0,0:0:0:0:
264,40,76721,6,8,P|352:52|392:132,1,131.250001251698,8|8,0:2|0:2,0:2:0:0:
288,344,76955,2,8,L|260:200,1,131.250001251698,8|8,0:3|0:3,0:3:0:0:
120,316,77190,2,8,L|88:112,1,131.250001251698,8|8,0:2|0:2,0:2:0:0:
160,44,77424,2,8,L|180:208,1,131.250001251698,8|8,0:3|0:3,0:3:0:0:
344,300,77658,1,8,0:2:0:0:
344,300,77775,1,4,0:2:0:0:
444,344,77893,2,8,L|408:160,1,131.250001251698,8|8,0:3|0:3,0:3:0:0:
256,180,78127,2,8,L|228:24,1,131.250001251698,8|8,0:2|0:2,0:2:0:0:
88,180,78361,1,8,0:3:0:0:
44,296,78479,1,8,0:3:0:0:
116,380,78596,2,4,L|160:224,1,131.250001251698,4|4,0:2|0:2,0:2:0:0:
400,36,78830,2,4,L|360:188,1,131.250001251698,4|4,0:2|0:2,0:2:0:0:
112,40,79065,6,4,P|112:204|168:360,1,300,4|4,0:2|0:2,0:2:0:0:
400,288,79533,2,8,L|480:280,1,56.2500021457673,8|8,0:3|0:3,0:3:0:0:
324,52,79768,1,8,0:2:0:0:
220,92,80002,1,8,0:2:0:0:
176,196,80236,1,8,0:2:0:0:
216,300,80471,1,8,0:2:0:0:
324,328,80705,2,8,P|350:329|408:312,1,56.2500021457673,8|8,0:3|0:3,0:3:0:0:
224,52,80940,1,8,0:2:0:0:
44,292,81174,2,8,L|136:296,1,56.2500021457673,8|8,0:3|0:3,0:3:0:0:
324,328,81408,1,8,0:2:0:0:
112,308,81643,6,8,P|92:256|112:208,1,56.2500021457673,8|8,0:2|0:2,0:2:0:0:
424,272,81877,2,8,P|436:224|424:204,1,56.2500021457673,8|8,0:3|0:3,0:3:0:0:
96,144,82111,2,8,L|132:80,1,56.2500021457673,8|8,0:2|0:2,0:2:0:0:
416,104,82346,2,8,L|360:72,1,56.2500021457673,8|8,0:3|0:3,0:3:0:0:
224,84,82580,6,8,P|224:64|240:80,1,37.5,8|8,0:3|0:3,0:3:0:0:
248,56,82815,2,0,B|288:156|292:212|208:228|260:272|260:272|248:376,1,300
100,52,83283,2,0,P|104:104|132:144,1,75
104,56,83752,2,0,P|99:115|83:151,1,75
104,56,84221,1,8,0:2:0:0:
136,204,84455,1,8,0:2:0:0:
172,352,84690,1,12,0:2:0:0:
172,352,85158,2,0,P|191:319|227:287,1,75
172,352,85627,1,8,0:3:0:0:
392,284,85861,6,8,P|340:216|276:204,1,150,8|8,0:3|0:3,0:3:0:0:
136,328,86096,2,8,P|204:276|216:212,1,150,8|8,0:3|0:3,0:3:0:0:
348,28,86330,2,8,P|280:80|268:144,1,150,8|8,0:2|0:2,0:2:0:0:
96,72,86565,2,8,P|148:140|212:152,1,150,8|8,0:2|0:2,0:2:0:0:
240,320,87033,2,0,P|180:272|324:304,1,450
240,320,87502,1,0,0:0:0:0:
88,32,87971,6,0,L|100:88,1,37.5
136,268,88205,2,0,L|160:324,1,37.5
396,328,88440,2,0,L|412:364,1,37.5
256,156,88674,1,0,0:0:0:0:
292,144,88791,1,0,0:0:0:0:
324,124,88908,2,0,P|316:64|272:44,1,112.5
76,60,89377,5,0,0:0:0:0:
92,132,89611,1,0,0:0:0:0:
140,192,89846,1,0,0:0:0:0:
204,228,90080,1,0,0:0:0:0:
240,236,90197,1,0,0:0:0:0:
280,240,90315,2,0,B|328:208|328:184|328:184|348:204,1,75
96,132,90666,5,0,0:0:0:0:
80,120,90783,2,0,B|124:96|184:112|208:160|208:160|244:84|300:88,1,225.000008583069
432,312,91135,1,0,0:0:0:0:
424,296,91252,2,0,B|384:268|356:272|356:272|340:288|316:288|288:300|288:300|264:288|244:272|224:288|208:280,1,225.000008583069
84,328,91604,1,0,0:0:0:0:
164,224,91721,6,0,L|200:192,1,37.5
228,88,91955,2,0,L|240:132,1,37.5
332,232,92190,2,0,B|304:136|292:144|280:152,1,75
96,52,92541,1,0,0:0:0:0:
56,92,92658,1,0,0:0:0:0:
40,144,92775,1,0,0:0:0:0:
60,196,92893,1,0,0:0:0:0:
100,232,93010,1,0,0:0:0:0:
156,240,93127,5,0,0:0:0:0:
208,224,93244,1,0,0:0:0:0:
256,196,93361,1,0,0:0:0:0:
312,188,93479,1,0,0:0:0:0:
388,184,93596,1,0,0:0:0:0:
448,228,93713,1,0,0:0:0:0:
448,304,93830,1,0,0:0:0:0:
384,344,93947,1,0,0:0:0:0:
312,320,94065,5,0,0:0:0:0:
268,300,94143,1,0,0:0:0:0:
220,288,94221,1,0,0:0:0:0:
172,284,94299,1,0,0:0:0:0:
124,300,94377,1,0,0:0:0:0:
76,312,94455,1,0,0:0:0:0:
68,264,94533,5,0,0:0:0:0:
72,216,94611,1,0,0:0:0:0:
80,168,94690,1,0,0:0:0:0:
76,120,94768,1,0,0:0:0:0:
72,72,94846,1,0,0:0:0:0:
56,24,94924,1,0,0:0:0:0:
104,36,95002,5,0,0:0:0:0:
152,32,95080,1,0,0:0:0:0:
200,36,95158,1,0,0:0:0:0:
244,56,95236,1,0,0:0:0:0:
284,84,95315,1,0,0:0:0:0:
332,88,95393,1,0,0:0:0:0:
380,84,95471,5,0,0:0:0:0:
384,160,95549,1,0,0:0:0:0:
460,144,95627,1,0,0:0:0:0:
472,216,95705,1,0,0:0:0:0:
424,272,95783,1,0,0:0:0:0:
348,252,95861,1,0,0:0:0:0:
280,288,95940,1,0,0:0:0:0:
128,232,96877,6,0,L|120:280,1,37.5
132,64,97111,2,0,L|124:120,1,37.5
256,304,97346,5,0,0:0:0:0:
260,228,97463,1,0,0:0:0:0:
328,196,97580,1,0,0:0:0:0:
388,240,97697,1,0,0:0:0:0:
170,236,97815,2,0,P|130:196|246:236,1,450
72,276,98283,2,0,L|144:320,1,56.2500021457673
268,312,98518,2,0,L|332:344,1,56.2500021457673
88,60,98752,2,0,B|44:100|44:140|76:188|112:192|164:180|196:140|172:104|172:104|216:80|284:108|316:132|316:148|312:156|296:136|272:116|256:168,1,450
392,248,99221,2,0,L|416:332,1,75
104,212,99455,2,0,L|76:304,1,75
460,32,99690,6,0,P|416:200|488:384,1,337.500012874604
284,32,100158,2,0,P|328:200|256:384,1,337.500012874604
160,36,100627,2,0,L|156:92,1,37.5
60,48,100861,2,0,L|52:92,1,37.5
252,96,101096,2,0,L|244:144,1,37.5
104,168,101330,2,0,P|80:332|116:424,1,150
208,320,101565,6,0,P|40:256|232:80,1,450
480,148,102033,2,0,B|440:180|400:188|400:188|376:172|336:152|300:156|300:156|272:176|248:192|212:192|184:180|164:156|164:156|120:164|104:196|120:240,1,450
464,344,102502,2,0,B|312:288|192:332|192:332|200:268|312:232|468:280|468:280|472:284,1,450
156,24,102971,2,0,P|156:64|204:132,1,112.500004291535
201,130,103205,2,0,P|152:88|144:28,1,112.500004291535
0,132,103440,6,0,P|96:120|152:60,1,150
0,244,103674,2,0,P|96:256|152:316,1,150
188,120,103908,2,0,P|271:71|299:-5,1,150
192,256,104143,2,0,P|275:304|303:381,1,150
360,156,104377,2,0,P|419:79|416:-2,1,150
360,220,104612,2,0,P|419:296|416:378,1,150
88,120,104846,2,0,L|48:200,1,75
112,268,105080,2,0,L|156:188,1,75
272,224,105315,6,0,P|256:280|252:356,1,112.5
68,228,105783,2,0,L|48:272,1,37.5
364,228,106018,2,0,L|344:272,1,37.5
172,228,106252,2,0,L|152:272,1,37.5
480,228,106486,2,0,L|460:272,1,37.5
240,312,106721,6,0,L|292:256,1,56.2500021457673
204,88,106955,2,0,L|264:160,1,56.2500021457673
144,328,107190,6,0,L|184:308,1,37.5
80,208,107424,2,0,L|123:223,1,37.5
120,80,107658,2,0,L|140:120,1,37.5
239,16,107893,2,0,L|224:59,1,37.5
367,56,108127,2,0,L|328:76,1,37.5
431,175,108361,2,0,L|388:160,1,37.5
391,303,108596,2,0,L|371:263,1,37.5
272,367,108830,2,0,L|287:324,1,37.5
104,304,109065,6,0,L|132:256,1,37.5
192,180,109299,2,0,L|128:188,1,37.5
40,184,109533,2,0,L|88:212,1,37.5
200,296,109768,2,0,L|232:240,1,37.5
132,352,110002,6,0,L|152:304,1,37.5
348,24,110236,2,0,L|308:84,1,37.5
424,180,110471,2,0,L|472:208,1,37.5
68,128,110705,2,0,L|16:120,1,37.5
352,40,110940,5,0,0:0:0:0:
100,312,111174,2,0,L|80:356,1,37.5
424,208,111408,1,0,0:0:0:0:
80,40,111643,2,0,L|28:52,1,37.5
64,204,111877,6,0,L|8:192,1,37.5
296,220,112111,2,0,L|348:228,1,37.5
188,324,112346,1,0,0:0:0:0:
56,128,112463,1,0,0:0:0:0:
168,232,112580,1,0,0:0:0:0:
333,225,112697,1,0,0:0:0:0:
448,144,112815,2,0,L|444:60,1,75
