osu file format v12

[General]
AudioFilename: [SeeU] Hide and Seek.mp3
AudioLeadIn: 0
PreviewTime: 5846
Countdown: 0
SampleSet: Soft
StackLeniency: 0.7
Mode: 0
LetterboxInBreaks: 0
WidescreenStoryboard: 0

[Editor]
DistanceSpacing: 0.8
BeatDivisor: 4
GridSize: 4
TimelineZoom: 1

[Metadata]
Title:Hide and Seek
TitleUnicode:숨바꼭질
Artist:Ho-Ong-I
ArtistUnicode:호옹이
Creator:neonat
Version:Normal
Source:
Tags:vocaloid SeeU -apxh 0gre Tyuh vocaloid3
BeatmapID:208084
BeatmapSetID:72943

[Difficulty]
HPDrainRate:3
CircleSize:3
OverallDifficulty:3
ApproachRate:4
SliderMultiplier:1.4
SliderTickRate:1

[Events]
//Background and Video events
Video,-450,"Hide and Seek.avi"
0,0,"Hide.And.Seek..jpg",0,0
//Break Periods
//Storyboard Layer 0 (Background)
//Storyboard Layer 1 (Fail)
//Storyboard Layer 2 (Pass)
//Storyboard Layer 3 (Foreground)
//Storyboard Sound Samples
//Background Colour Transformations
3,100,163,162,255

[TimingPoints]
5846,500,4,2,0,30,1,0
21846,-133.333333333333,4,2,0,60,0,0
26971,-100,4,2,0,60,0,0
29846,-133.333333333333,4,2,0,60,0,0
37846,-100,4,2,0,60,0,0
69846,-100,4,1,1,60,0,1
69971,-100,4,2,0,60,0,1
73846,-100,4,1,1,60,0,1
73971,-100,4,2,0,60,0,1
77846,-100,4,1,1,60,0,1
77971,-100,4,2,0,60,0,1
81846,-100,4,1,1,60,0,1
81971,-100,4,2,0,60,0,1
85846,-100,4,2,0,60,0,0
119846,-100,4,1,1,60,0,1
119971,-100,4,2,0,60,0,1
123846,-100,4,1,1,60,0,1
123971,-100,4,2,0,60,0,1
127846,-100,4,1,1,60,0,1
127971,-100,4,2,0,60,0,1
131846,-100,4,1,1,60,0,1
131971,-100,4,2,0,60,0,1
135846,-100,4,2,0,60,0,0

[Colours]
Combo1 : 243,133,155
Combo2 : 138,47,140
Combo3 : 231,22,231
Combo4 : 121,142,137
Combo5 : 255,190,94
Combo6 : 210,20,11

[HitObjects]
144,48,5846,5,2,0:0:0:0:
256,36,6346,1,0,0:0:0:0:
368,56,6846,2,0,P|376:104|320:176,1,140
212,176,7846,1,2,0:0:0:0:
100,176,8346,1,0,0:0:0:0:
136,280,8846,2,0,P|104:320|16:320,1,140
16,212,9846,6,0,P|32:108|136:92,1,210,2|0,0:0|0:0,0:0:0:0:
168,116,10846,1,0,0:0:0:0:
256,48,11346,1,0,0:0:0:0:
348,112,11846,1,2,0:0:0:0:
320,220,12346,1,2,0:0:0:0:
208,220,12846,1,2,0:0:0:0:
120,292,13346,1,2,0:0:0:0:
228,328,13846,6,0,P|284:320|316:248,1,140,2|0,0:0|0:0,0:0:0:0:
396,328,14846,2,0,P|468:332|508:264,1,140
420,212,15846,2,0,P|404:148|332:132,1,140,2|0,0:0|0:0,0:0:0:0:
240,76,16846,1,0,0:0:0:0:
240,76,17346,1,0,0:0:0:0:
344,112,17846,6,0,P|281:196|181:161,1,210,2|0,0:0|0:0,0:0:0:0:
144,140,18846,2,0,P|116:80|144:8,1,140
232,76,19846,2,0,P|288:92|364:28,1,140,2|0,0:0|0:0,0:0:0:0:
424,140,20846,2,0,P|363:170|342:235,1,140,2|0,0:0|0:0,0:0:0:0:
224,280,21846,6,0,P|164:304|88:256,1,157.500006008148,2|0,0:0|0:0,0:0:0:0:
52,208,22846,2,0,P|36:156|52:96,1,105.000004005432,0|2,0:0|0:0,0:0:0:0:
136,20,23846,2,0,P|176:8|240:16,1,105.000004005432,0|0,0:0|0:0,0:0:0:0:
238,15,24846,1,2,0:0:0:0:
476,96,25846,6,0,P|504:148|448:232,1,157.500006008148,2|0,0:0|0:0,0:0:0:0:
408,264,26846,1,0,0:0:0:0:
316,332,27346,1,0,0:0:0:0:
204,340,27846,1,2,0:0:0:0:
108,280,28346,1,0,0:0:0:0:
60,180,28846,1,0,0:0:0:0:
108,80,29346,1,2,0:0:0:0:
216,20,29846,6,0,P|240:28|288:148,1,157.500006008148,2|0,0:0|0:0,0:0:0:0:
288,204,30846,1,0,0:0:0:0:
392,276,31346,2,0,P|352:320|288:320,1,105.000004005432,0|2,0:0|0:0,0:0:0:0:
184,324,32346,2,0,P|128:316|96:276,1,105.000004005432,0|2,0:0|0:0,0:0:0:0:
56,32,33846,6,0,P|104:88|196:64,1,157.500006008148,2|0,0:0|0:0,0:0:0:0:
236,48,34846,2,0,P|252:32|344:48,1,105.000004005432
412,128,35846,2,0,P|372:160|308:144,1,105.000004005432,2|2,0:0|0:0,0:0:0:0:
196,160,36846,2,0,P|192:192|259:242,1,105.000004005432,2|2,0:0|0:0,0:0:0:0:
300,336,37846,6,0,L|156:336,1,140,4|8,0:0|0:0,0:0:0:0:
56,288,38846,2,0,P|64:248|40:196,1,70
56,164,39346,2,0,P|44:124|76:76,1,70,8|0,0:0|0:0,0:0:0:0:
100,68,39846,2,0,P|152:104|240:92,1,140,0|8,0:0|0:0,0:0:0:0:
332,136,40846,2,0,L|436:24,2,140,0|8|0,0:0|0:0|0:0,0:0:0:0:
412,344,42846,6,0,L|300:232,1,140,0|8,0:0|0:0,0:0:0:0:
200,244,43846,2,0,P|148:284|56:284,1,140,0|8,0:0|0:0,0:0:0:0:
12,200,44846,1,0,0:0:0:0:
52,96,45346,1,8,0:0:0:0:
156,52,45846,6,0,P|220:30|297:56,1,140,4|8,0:0|0:0,0:0:0:0:
368,128,46846,1,0,0:0:0:0:
388,240,47346,1,8,0:0:0:0:
324,332,47846,2,0,P|284:272|288:192,1,140,0|8,0:0|0:0,0:0:0:0:
236,104,48846,2,0,L|92:104,1,140,0|8,0:0|0:0,0:0:0:0:
8,172,49846,1,2,0:0:0:0:
232,192,50846,6,0,P|256:144|224:64,1,140,0|8,0:0|0:0,0:0:0:0:
132,8,51846,2,0,P|108:56|140:136,1,140,0|8,0:0|0:0,0:0:0:0:
232,192,52846,2,0,P|280:152|376:176,1,140,2|8,0:0|0:0,0:0:0:0:
332,268,53846,6,0,P|436:256|460:148,1,210,2|0,0:0|0:0,0:0:0:0:
444,116,54846,1,0,0:0:0:0:
352,48,55346,1,2,0:0:0:0:
240,40,55846,1,0,0:0:0:0:
132,72,56346,1,2,0:0:0:0:
132,72,56846,1,0,0:0:0:0:
180,300,57846,6,0,L|250:300,2,70,2|0|0,0:0|0:0|0:0,0:0:0:0:
68,300,58846,1,0,0:0:0:0:
128,208,59346,1,2,0:0:0:0:
228,156,59846,1,0,0:0:0:0:
312,228,60346,1,2,0:0:0:0:
404,292,60846,1,0,0:0:0:0:
484,216,61346,1,2,0:0:0:0:
468,104,61846,6,0,P|388:96|332:144,1,140,2|0,0:0|0:0,0:0:0:0:
228,96,62846,2,0,L|84:96,2,140,0|2|0,0:0|0:0|0:0,0:0:0:0:
340,96,64346,1,2,0:0:0:0:
88,320,65846,6,0,P|136:320|232:200,1,210,2|0,0:0|0:0,0:0:0:0:
264,160,66846,1,2,0:0:0:0:
376,160,67346,2,0,P|448:200|464:268,1,140,0|4,0:0|0:0,0:0:0:0:
352,260,68346,2,0,L|208:260,2,140,0|2|2,0:0|0:0|0:0,0:0:0:0:
348,148,69846,5,4,0:0:0:0:
236,148,70346,1,4,0:0:0:0:
244,260,70846,2,0,P|288:304|332:244,2,140
136,296,72346,1,0,0:0:0:0:
80,200,72846,2,0,L|80:56,1,140
192,60,73846,5,4,0:0:0:0:
248,156,74346,1,4,0:0:0:0:
252,268,74846,2,0,L|180:268,1,70
128,284,75346,2,0,L|48:336,2,70
144,172,76346,1,0,0:0:0:0:
148,60,76846,2,0,P|196:92|268:60,1,140
372,104,77846,5,4,0:0:0:0:
452,184,78346,1,4,0:0:0:0:
392,276,78846,2,0,P|452:292|480:284,2,70
356,320,79596,2,0,L|276:376,1,70
196,312,80346,2,0,P|124:304|108:240,2,140
256,216,81846,5,4,0:0:0:0:
256,104,82346,1,4,0:0:0:0:
148,76,82846,2,0,L|148:220,1,140
152,328,83846,1,2,0:0:0:0:
352,72,85846,5,2,0:0:0:0:
436,144,86346,1,8,0:0:0:0:
436,256,86846,2,0,P|404:288|308:288,1,140,0|8,0:0|0:0,0:0:0:0:
204,272,87846,1,0,0:0:0:0:
112,204,88346,1,8,0:0:0:0:
84,96,88846,2,0,P|172:72|228:72,1,140,0|8,0:0|0:0,0:0:0:0:
328,96,89846,1,2,0:0:0:0:
436,292,90846,6,0,P|412:252|324:252,1,140,0|8,0:0|0:0,0:0:0:0:
224,296,91846,2,0,P|144:288|112:240,1,140,0|8,0:0|0:0,0:0:0:0:
76,136,92846,2,0,P|84:88|164:48,1,140,0|8,0:0|0:0,0:0:0:0:
236,132,93846,5,2,0:0:0:0:
232,244,94346,2,0,P|296:232|336:152,1,140,8|0,0:0|0:0,0:0:0:0:
388,76,95346,2,0,P|436:124|444:196,1,140,8|0,0:0|0:0,0:0:0:0:
388,288,96346,1,8,0:0:0:0:
276,308,96846,2,0,P|180:300|148:264,1,140,0|8,0:0|0:0,0:0:0:0:
80,188,97846,1,2,0:0:0:0:
268,68,98846,5,0,0:0:0:0:
352,140,99346,1,8,0:0:0:0:
268,216,99846,1,2,0:0:0:0:
188,140,100346,1,8,0:0:0:0:
268,68,100846,1,0,0:0:0:0:
352,140,101346,1,8,0:0:0:0:
256,192,101846,12,0,103846,0:0:0:0:
256,312,104846,5,2,0:0:0:0:
480,320,105846,6,0,P|496:272|392:320,1,280,2|0,0:0|0:0,0:0:0:0:
280,324,107346,1,0,0:0:0:0:
168,320,107846,2,0,P|120:280|104:200,1,140,2|0,0:0|0:0,0:0:0:0:
92,96,108846,2,0,L|236:96,1,140,2|0,0:0|0:0,0:0:0:0:
256,192,109846,12,0,111846,0:0:0:0:
320,320,112846,5,2,0:0:0:0:
136,192,113846,6,0,B|184:88|184:88|352:88,1,280,2|0,0:0|0:0,0:0:0:0:
460,92,115346,1,0,0:0:0:0:
456,204,115846,2,0,B|392:204|392:204|336:260,1,140,2|2,0:0|0:0,0:0:0:0:
236,300,116846,2,0,B|236:228|236:228|180:180,1,140,2|2,0:0|0:0,0:0:0:0:
96,116,117846,5,2,0:0:0:0:
180,40,118346,1,2,0:0:0:0:
204,149,118846,1,0,0:0:0:0:
391,271,119846,5,4,0:0:0:0:
424,164,120346,1,4,0:0:0:0:
364,72,120846,2,0,L|434:72,2,70
308,72,121596,1,0,0:0:0:0:
252,68,121846,2,0,B|180:68|180:68|124:116,1,140,0|0,0:0|0:0,0:0:0:0:
156,220,122846,1,0,0:0:0:0:
44,220,123346,1,2,0:0:0:0:
48,108,123846,6,0,P|88:84|184:68,1,140,4|4,0:0|0:0,0:0:0:0:
292,76,124846,2,0,L|364:76,1,70
416,96,125346,2,0,L|416:168,1,70
416,220,125846,1,0,0:0:0:0:
344,312,126346,2,0,L|200:312,2,140,0|0|2,0:0|0:0|0:0,0:0:0:0:
280,216,127846,6,0,L|176:112,1,140,4|4,0:0|0:0,0:0:0:0:
264,44,128846,2,0,L|336:44,1,70
392,44,129346,2,0,L|472:44,2,70
324,132,130346,2,0,L|254:132,2,70
396,220,131346,1,2,0:0:0:0:
320,304,131846,5,4,0:0:0:0:
208,284,132346,1,4,0:0:0:0:
100,260,132846,2,0,P|68:236|64:200,1,70
64,152,133346,2,0,P|88:104|104:96,1,70
156,84,133846,1,2,0:0:0:0:
256,192,134096,12,2,135846,0:0:0:0:
168,144,136846,5,2,0:0:0:0:
392,144,137846,1,2,0:0:0:0:
256,320,138846,2,0,L|256:160,1,140,2|2,0:0|0:0,0:0:0:0:
256,68,139846,5,2,0:0:0:0:
68,192,140846,1,2,0:0:0:0:
256,316,141846,2,0,L|408:316,1,140
476,236,142846,1,2,0:0:0:0:
404,148,143346,1,2,0:0:0:0:
404,148,143596,1,2,0:0:0:0:
