osu file format v12

[General]
AudioFilename: [SeeU] Hide and Seek.mp3
AudioLeadIn: 0
PreviewTime: 5846
Countdown: 0
SampleSet: Normal
StackLeniency: 0.7
Mode: 0
LetterboxInBreaks: 0
WidescreenStoryboard: 0

[Editor]
DistanceSpacing: 1
BeatDivisor: 4
GridSize: 4
TimelineZoom: 1

[Metadata]
Title:Hide and Seek
TitleUnicode:숨바꼭질
Artist:Ho-Ong-I
ArtistUnicode:호옹이
Creator:neonat
Version:Insane Collab
Source:
Tags:vocaloid SeeU -apxh 0gre Tyuh vocaloid3
BeatmapID:211901
BeatmapSetID:72943

[Difficulty]
HPDrainRate:7
CircleSize:4
OverallDifficulty:7
ApproachRate:8
SliderMultiplier:2
SliderTickRate:1

[Events]
//Background and Video events
Video,-450,"Hide and Seek.avi"
0,0,"Hide.And.Seek..jpg",0,0
//Break Periods
//Storyboard Layer 0 (Background)
//Storyboard Layer 1 (Fail)
//Storyboard Layer 2 (Pass)
//Storyboard Layer 3 (Foreground)
//Storyboard Sound Samples
//Background Colour Transformations
3,100,163,162,255

[TimingPoints]
5846,500,4,2,1,30,1,0
5846,-133.333333333333,4,2,1,30,0,0
37846,-100,4,1,1,30,0,0
37971,-100,4,2,1,50,0,0
54346,-100,4,2,2,40,0,0
54471,-100,4,2,1,50,0,0
55221,-100,4,1,1,40,0,0
55471,-100,4,2,1,50,0,0
56221,-100,4,1,1,40,0,0
56471,-100,4,2,1,50,0,0
57221,-100,4,1,1,40,0,0
57471,-100,4,2,1,15,0,0
57846,-100,4,2,1,70,0,0
58221,-100,4,1,1,40,0,0
58471,-100,4,2,1,70,0,0
59221,-100,4,1,1,40,0,0
59471,-100,4,2,1,70,0,0
60346,-100,4,1,1,40,0,0
60471,-100,4,2,1,70,0,0
61346,-100,4,1,1,40,0,0
61471,-100,4,2,1,70,0,0
62221,-100,4,1,1,40,0,0
62471,-100,4,2,1,70,0,0
63221,-100,4,1,1,40,0,0
63471,-100,4,2,1,70,0,0
64221,-100,4,1,1,40,0,0
64471,-100,4,2,1,70,0,0
65221,-100,4,1,1,40,0,0
65471,-100,4,2,1,70,0,0
65596,-100,4,2,1,15,0,0
65846,-100,4,2,1,70,0,0
66221,-100,4,1,1,40,0,0
66471,-100,4,2,1,70,0,0
67221,-100,4,1,1,40,0,0
67471,-100,4,2,1,70,0,0
67721,-100,4,1,1,40,0,0
68596,-100,4,2,1,70,0,0
69096,-100,4,1,1,40,0,0
69846,-100,4,1,1,40,0,1
69971,-100,4,2,1,70,0,0
70596,-100,4,1,1,40,0,0
70721,-100,4,2,1,70,0,0
71346,-100,4,1,1,40,0,0
71471,-100,4,2,1,70,0,0
71846,-100,4,2,1,25,0,0
72096,-100,4,1,1,40,0,0
72221,-100,4,2,1,25,0,0
72471,-100,4,1,1,40,0,0
72721,-100,4,2,1,25,0,0
73096,-100,4,1,1,40,0,0
73221,-100,4,2,1,25,0,0
73471,-100,4,1,1,40,0,0
73846,-100,4,1,1,40,0,1
73971,-100,4,2,1,70,0,0
74471,-100,4,1,1,40,0,0
74721,-100,4,2,1,70,0,0
75346,-100,4,1,1,40,0,0
75471,-100,4,2,1,70,0,0
75721,-100,4,2,1,25,0,0
76096,-100,4,1,1,40,0,0
76221,-100,4,2,1,25,0,0
76471,-100,4,1,1,40,0,0
76721,-100,4,2,1,25,0,0
77096,-100,4,1,1,40,0,0
77221,-100,4,2,1,25,0,0
77471,-100,4,1,1,40,0,0
77846,-100,4,1,1,40,0,1
77971,-100,4,2,1,70,0,0
79221,-100,4,1,1,40,0,0
79471,-100,4,2,1,70,0,0
79971,-100,4,1,1,40,0,0
80221,-100,4,2,1,25,0,0
80471,-100,4,1,1,40,0,0
80721,-100,4,2,1,25,0,0
80971,-100,4,1,1,40,0,0
81221,-100,4,2,1,25,0,0
81471,-100,4,1,1,40,0,0
81721,-100,4,2,1,25,0,0
81846,-100,4,1,1,40,0,1
81971,-100,4,2,1,25,0,0
82346,-100,4,2,1,70,0,0
82471,-100,4,1,1,40,0,0
82721,-100,4,2,1,70,0,0
82971,-100,4,2,1,25,0,0
83346,-100,4,1,1,40,0,0
83471,-100,4,2,1,25,0,0
83971,-100,4,1,1,40,0,0
84221,-100,4,2,1,25,0,0
84471,-100,4,1,1,40,0,0
84721,-100,4,2,1,25,0,0
84971,-100,4,1,1,40,0,0
85221,-100,4,2,1,25,0,0
85471,-100,4,1,1,40,0,0
85846,-100,4,1,1,45,0,0
85971,-100,4,2,1,60,0,0
89846,-100,4,1,1,45,0,0
89971,-100,4,2,1,60,0,0
93846,-100,4,1,1,45,0,0
93971,-100,4,2,1,60,0,0
97846,-100,4,1,1,45,0,0
97971,-100,4,2,1,60,0,0
101846,-100,4,1,1,45,0,0
102221,-100,4,1,1,40,0,0
103846,-100,4,2,1,70,0,0
104221,-100,4,1,1,40,0,0
104471,-100,4,2,1,70,0,0
105221,-100,4,1,1,40,0,0
105721,-100,4,2,1,70,0,0
106221,-100,4,1,1,40,0,0
106471,-100,4,2,1,70,0,0
107221,-100,4,1,1,40,0,0
107471,-100,4,2,1,70,0,0
108221,-100,4,1,1,40,0,0
108471,-100,4,2,1,70,0,0
109221,-100,4,1,1,40,0,0
109471,-100,4,2,1,70,0,0
110221,-100,4,1,1,40,0,0
110471,-100,4,2,1,70,0,0
111221,-100,4,1,1,40,0,0
111471,-100,4,2,1,70,0,0
112221,-100,4,1,1,40,0,0
112471,-100,4,2,1,70,0,0
113221,-100,4,1,1,40,0,0
113471,-100,4,2,1,70,0,0
114221,-100,4,1,1,40,0,0
114471,-100,4,2,1,70,0,0
115221,-100,4,1,1,40,0,0
115471,-100,4,2,1,70,0,0
115721,-100,4,1,1,40,0,0
115971,-100,4,2,1,70,0,0
116471,-100,4,1,1,40,0,0
116721,-100,4,2,1,70,0,0
117221,-100,4,1,1,30,0,0
117471,-100,4,2,1,70,0,0
117846,-100,4,2,1,40,0,0
119846,-66.6666666666667,4,1,1,40,0,1
120846,-100,4,2,1,70,0,1
121346,-100,4,1,1,40,0,1
121721,-100,4,2,1,25,0,1
121971,-100,4,1,1,40,0,1
122221,-100,4,2,1,25,0,1
122471,-100,4,1,1,40,0,1
122721,-100,4,2,1,25,0,1
122971,-100,4,1,1,40,0,1
123221,-100,4,2,1,25,0,1
123471,-100,4,1,1,40,0,1
123721,-66.6666666666667,4,1,1,40,0,0
123846,-66.6666666666667,4,1,1,40,0,1
124721,-100,4,2,1,70,0,1
125221,-100,4,1,1,40,0,1
125471,-100,4,2,1,70,0,1
125721,-100,4,2,1,25,0,1
125971,-100,4,1,1,40,0,1
126221,-100,4,2,1,25,0,1
126471,-100,4,1,1,40,0,1
126721,-100,4,2,1,25,0,1
126971,-100,4,1,1,40,0,1
127221,-100,4,2,1,25,0,1
127471,-100,4,1,1,40,0,1
127721,-100,4,1,1,40,0,0
127846,-66.6666666666667,4,1,1,40,0,1
128721,-100,4,2,1,70,0,1
129221,-100,4,1,1,40,0,1
129471,-100,4,2,1,70,0,1
129721,-100,4,2,1,25,0,1
129971,-100,4,1,1,40,0,1
130221,-100,4,2,1,25,0,1
130471,-100,4,1,1,40,0,1
130721,-100,4,2,1,25,0,1
130971,-100,4,1,1,40,0,1
131221,-100,4,2,1,25,0,1
131471,-100,4,1,1,40,0,1
131721,-100,4,1,1,40,0,0
131846,-66.6666666666667,4,1,1,40,0,1
132846,-100,4,2,1,70,0,1
133221,-100,4,1,1,40,0,1
133471,-100,4,2,1,70,0,1
133721,-100,4,2,1,25,0,1
133971,-100,4,1,1,40,0,1
134221,-100,4,2,1,25,0,1
134471,-100,4,1,1,40,0,1
134721,-100,4,2,1,25,0,1
134971,-100,4,1,1,40,0,1
135221,-100,4,2,1,25,0,1
135471,-100,4,1,1,40,0,1
135846,-100,4,2,1,25,0,0

[Colours]
Combo1 : 243,133,155
Combo2 : 138,47,140
Combo3 : 231,22,231
Combo4 : 105,124,119
Combo5 : 255,190,94
Combo6 : 210,20,11

[HitObjects]
328,96,5846,70,0,L|176:96,1,150.000005722046
368,232,6846,2,0,L|288:232,1,75.0000028610231
144,232,7346,2,0,L|224:232,1,75.0000028610231
176,312,7846,2,0,L|328:312,1,150.000005722046
144,152,8846,2,0,L|224:152,1,75.0000028610231
368,152,9346,2,0,L|288:152,1,75.0000028610231
256,80,9846,6,0,B|340:24|388:136|480:80,1,225.000008583069
428,12,10846,1,0,0:0:0:0:
428,12,11096,1,0,0:0:0:0:
304,148,11346,1,0,0:0:0:0:
304,148,11596,1,0,0:0:0:0:
392,192,11846,2,0,L|392:352,1,150.000005722046
128,192,12846,2,0,L|128:40,1,150.000005722046
144,152,13846,70,0,L|220:152,1,75.0000028610231,2|0,0:0|0:0,0:0:0:0:
368,152,14346,2,0,L|288:152,1,75.0000028610231,2|0,0:0|0:0,0:0:0:0:
216,80,14846,2,0,L|136:80,1,75.0000028610231
296,80,15346,2,0,L|376:80,1,75.0000028610231
368,232,15846,6,0,L|280:232,1,75.0000028610231,2|0,0:0|0:0,0:0:0:0:
144,232,16346,2,0,L|232:232,1,75.0000028610231,2|0,0:0|0:0,0:0:0:0:
296,304,16846,2,0,L|384:304,1,75.0000028610231
216,304,17346,2,0,L|136:304,1,75.0000028610231
256,240,17846,70,0,B|192:152|328:88|244:16,1,225.000008583069,2|0,0:0|0:0,0:0:0:0:
308,184,18846,1,0,0:0:0:0:
308,184,19096,1,0,0:0:0:0:
204,76,19346,1,0,0:0:0:0:
204,76,19596,1,0,0:0:0:0:
120,192,19846,6,0,L|120:344,1,150.000005722046,2|2,0:0|0:0,0:0:0:0:
392,192,20846,2,0,L|392:40,1,150.000005722046,2|2,0:0|0:0,0:0:0:0:
184,192,21846,6,0,P|256:264|328:192,1,225.000008583069,2|0,0:0|0:0,0:0:0:0:
256,192,22846,2,0,L|256:344,1,150.000005722046
192,152,23846,6,0,P|240:120|320:152,1,150.000005722046
256,40,24846,21,2,0:0:0:0:
256,120,25846,38,0,B|256:128|256:128|256:200|200:256,1,150.000005722046,2|0,0:0|0:0,0:0:0:0:
256,120,26596,1,0,0:0:0:0:
256,120,26846,2,0,B|256:128|256:128|256:200|312:256,1,150.000005722046,0|0,0:0|0:0,0:0:0:0:
120,256,27846,6,0,B|120:248|120:248|120:176|176:120,1,150.000005722046,2|0,0:0|0:0,0:0:0:0:
392,256,28846,2,0,B|392:248|392:248|392:176|336:120,1,150.000005722046,2|2,0:0|0:0,0:0:0:0:
184,190,29846,70,0,P|256:120|328:192,1,225.000008583069,2|0,0:0|0:0,0:0:0:0:
256,192,30846,2,0,L|256:32,1,150.000005722046
320,232,31846,6,0,P|272:264|192:232,1,150.000005722046
256,352,32846,5,2,0:0:0:0:
176,124,33846,38,0,P|256:188|336:120,1,225.000008583069,2|0,0:0|0:0,0:0:0:0:
256,112,34846,1,0,0:0:0:0:
256,112,35346,2,0,L|256:264,1,150.000005722046,0|2,0:0|0:0,0:0:0:0:
256,40,36346,5,2,0:0:0:0:
136,192,36846,2,0,L|184:192,3,37.5000014305115,2|0|0|0,0:0|0:0|0:0|0:0,0:0:0:0:
208,192,37346,2,0,L|248:192,3,37.5000014305115,2|0|0|0,0:0|0:0|0:0|0:0,0:0:0:0:
288,192,37846,38,0,B|288:216|288:216|288:240|312:264|336:264|336:264|344:264,1,100,0|0,0:0|0:0,0:0:0:0:
368,192,38346,2,0,B|368:168|368:168|368:144|344:120|320:120|320:120|312:120,1,100,0|0,1:0|0:0,0:0:0:0:
224,192,38846,2,0,B|224:216|224:216|224:240|200:264|176:264|176:264|168:264,1,100,0|0,0:0|0:0,0:0:0:0:
144,192,39346,2,0,B|144:168|144:168|144:144|168:120|192:120|192:120|200:120,1,100,0|0,1:0|0:0,0:0:0:0:
352,128,39846,5,0,0:0:0:0:
224,256,40096,2,0,L|256:352,2,100,0|0|0,0:0|1:0|0:0,0:0:0:0:
160,224,40846,1,0,0:0:0:0:
288,128,41096,2,0,L|256:32,1,100,0|0,0:0|1:0,0:0:0:0:
336,280,41596,1,0,0:0:0:0:
256,192,41846,70,0,L|256:296,1,100,0|0,0:0|0:0,0:0:0:0:
320,216,42346,2,0,L|256:292,1,100,0|0,1:0|0:0,0:0:0:0:
192,216,42846,2,0,L|256:292,1,100,0|0,0:0|0:0,0:0:0:0:
256,120,43346,2,0,L|256:16,1,100,0|0,1:0|0:0,0:0:0:0:
256,288,43846,5,0,0:0:0:0:
128,256,44096,1,0,0:0:0:0:
384,256,44346,1,0,1:0:0:0:
256,320,44596,1,0,0:0:0:0:
256,96,44846,1,0,0:0:0:0:
384,128,45096,1,0,0:0:0:0:
128,128,45346,1,0,1:0:0:0:
256,64,45596,1,0,0:0:0:0:
144,80,45846,70,0,L|216:152,1,100,4|0,0:1|0:0,0:0:0:0:
368,304,46346,2,0,L|296:232,1,100,0|0,1:0|0:0,0:0:0:0:
256,48,46846,2,0,L|256:152,1,100,0|0,0:0|0:0,0:0:0:0:
256,336,47346,2,0,L|256:232,1,100,0|0,1:0|0:0,0:0:0:0:
368,80,47846,6,0,L|296:152,1,100,0|0,0:0|0:0,0:0:0:0:
144,304,48346,2,0,L|216:232,1,100,0|0,1:0|0:0,0:0:0:0:
400,192,48846,2,0,L|296:192,1,100,0|0,0:0|0:0,0:0:0:0:
112,192,49346,2,0,L|216:192,1,100,0|0,1:0|0:0,0:0:0:0:
304,128,49846,70,0,L|416:128,1,100,0|0,0:0|0:0,0:0:0:0:
208,256,50346,2,0,L|104:256,1,100,0|0,1:0|0:0,0:0:0:0:
296,232,50846,2,0,L|368:304,1,100,0|0,0:0|0:0,0:0:0:0:
216,152,51346,2,0,L|144:80,1,100,0|0,1:0|0:0,0:0:0:0:
256,240,51846,6,0,L|256:344,1,100,0|0,0:0|0:0,0:0:0:0:
256,144,52346,2,0,L|256:32,1,100,0|0,1:0|1:0,0:0:0:0:
216,232,52846,2,0,L|144:304,1,100,0|0,0:0|2:0,0:0:0:0:
296,152,53346,2,0,L|368:80,1,100,0|0,1:0|0:0,0:0:0:0:
247,192,53846,6,0,P|200:87|125:196,1,300,4|0,0:1|0:0,0:0:0:0:
185,157,54846,1,0,0:0:0:0:
185,157,55096,2,0,L|185:261,1,100
329,157,55596,2,0,L|329:261,1,100
256,160,56096,6,0,L|256:56,2,100
264,344,56846,2,0,P|320:328|360:344,1,100
136,168,57346,2,0,P|180:104|248:88,1,150
320,156,57846,70,0,P|280:116|248:88,1,100
372,208,58346,2,0,P|336:244|304:280,1,100
372,108,58846,2,0,L|372:212,1,100
256,344,59346,2,0,L|256:240,1,100
320,104,59846,5,0,0:0:0:0:
136,192,60096,1,0,0:0:0:0:
136,192,60221,1,0,0:0:0:0:
136,192,60346,2,0,L|136:88,1,100
192,288,60846,1,0,0:0:0:0:
384,192,61096,1,0,0:0:0:0:
384,192,61221,1,0,0:0:0:0:
384,192,61346,2,0,L|384:296,1,100
310,216,61846,70,0,P|382:272|460:214,1,200
208,168,62596,1,0,0:0:0:0:
208,168,62846,2,0,P|128:112|56:168,1,200
208,268,63846,6,0,L|208:164,1,100
440,40,64346,2,0,L|440:144,1,100
168,320,64846,2,0,L|168:220,1,100
140,140,65346,2,0,P|224:100|256:56,1,150
168,8,65846,70,0,L|256:56,1,100
344,8,66346,2,0,L|256:56,1,100
256,208,66846,2,0,L|344:256,1,100
256,208,67346,2,0,L|168:256,1,100
96,32,67846,5,4,2:0:0:0:
416,32,68346,1,0,0:0:0:0:
416,352,68846,1,0,0:0:0:0:
96,352,69346,1,0,0:0:0:0:
256,40,69846,6,0,L|256:144,1,100,4|0,0:0|0:0,0:0:0:0:
256,352,70346,2,0,L|256:232,1,100
96,192,70846,2,0,L|200:192,1,100
416,192,71346,2,0,L|312:192,1,100
136,40,71846,5,0,0:0:0:0:
136,40,71971,1,0,0:0:0:0:
136,40,72096,1,0,0:0:0:0:
136,40,72346,2,0,L|136:144,1,100
384,352,72846,1,0,0:0:0:0:
384,352,72971,1,0,0:0:0:0:
384,352,73096,1,0,0:0:0:0:
384,352,73346,2,0,L|384:240,1,100
256,240,73846,70,0,L|256:344,1,100,4|0,0:0|0:0,0:0:0:0:
256,144,74346,2,0,L|256:24,1,100
208,192,74846,2,0,L|104:192,1,100
304,192,75346,2,0,L|408:192,1,100
32,192,75846,5,0,0:0:0:0:
48,192,75971,1,0,0:0:0:0:
64,192,76096,1,0,0:0:0:0:
256,192,76346,2,0,L|152:192,1,100
480,192,76846,1,0,0:0:0:0:
464,192,76971,1,0,0:0:0:0:
448,192,77096,1,0,0:0:0:0:
256,192,77346,2,0,L|360:192,1,100
164,96,77846,70,0,P|256:64|352:96,2,200,4|0|0,0:0|0:0|0:0,0:0:0:0:
200,176,79096,2,0,L|152:272,1,100
304,176,79596,2,0,L|352:264,1,100
256,40,80096,5,0,0:0:0:0:
256,40,80346,1,0,0:0:0:0:
256,40,80596,2,0,P|208:40|168:72,1,100
256,352,81096,1,0,0:0:0:0:
256,352,81346,1,0,0:0:0:0:
256,352,81596,2,0,P|304:352|344:320,1,100,0|4,0:0|0:0,0:0:0:0:
400,232,82096,69,0,0:0:0:0:
408,200,82221,1,0,0:0:0:0:
416,168,82346,2,0,L|520:168,1,100
168,320,82846,1,0,0:0:0:0:
136,232,83096,1,0,0:0:0:0:
120,192,83221,1,0,0:0:0:0:
104,160,83346,2,0,L|0:160,1,100
128,64,83846,5,0,0:0:0:0:
128,64,84096,1,0,0:0:0:0:
384,64,84346,1,0,0:0:0:0:
384,64,84596,1,0,0:0:0:0:
384,320,84846,1,0,0:0:0:0:
384,320,85096,1,0,0:0:0:0:
128,320,85346,1,0,0:0:0:0:
128,320,85596,1,0,0:0:0:0:
160,32,85846,6,0,L|56:80,1,100,4|0,0:0|0:0,0:0:0:0:
160,128,86346,2,0,L|56:176,1,100,0|0,1:0|0:0,0:0:0:0:
160,224,86846,2,0,L|52:276,1,100,0|0,0:0|0:0,0:0:0:0:
256,256,87346,2,0,L|256:360,1,100,0|0,1:0|0:0,0:0:0:0:
384,352,87846,6,0,L|488:304,1,100,0|0,0:0|0:0,0:0:0:0:
384,256,88346,2,0,L|504:200,1,100,0|0,1:0|0:0,0:0:0:0:
384,160,88846,2,0,L|488:112,1,100,0|0,0:0|0:0,0:0:0:0:
256,128,89346,2,0,L|256:24,1,100,0|0,1:0|0:0,0:0:0:0:
32,192,89846,69,4,0:0:0:0:
32,344,90096,1,0,0:0:0:0:
32,344,90221,1,0,0:0:0:0:
32,344,90346,2,0,L|24:240,1,100,0|0,1:0|0:0,0:0:0:0:
472,192,90846,1,0,0:0:0:0:
472,32,91096,1,0,0:0:0:0:
472,32,91221,1,0,0:0:0:0:
472,32,91346,2,0,L|480:136,1,100,0|0,1:0|0:0,0:0:0:0:
416,224,91846,5,0,0:0:0:0:
224,352,92096,1,0,0:0:0:0:
96,160,92346,1,0,1:0:0:0:
288,32,92596,1,0,0:0:0:0:
160,256,92846,1,0,0:0:0:0:
320,288,93096,1,0,0:0:0:0:
352,128,93346,1,0,1:0:0:0:
192,96,93596,1,0,0:0:0:0:
256,296,93846,70,0,P|208:316|160:316,1,100,4|0,0:0|0:0,0:0:0:0:
256,88,94346,2,0,P|304:68|352:68,1,100,0|0,1:0|0:0,0:0:0:0:
160,316,94846,2,0,P|148:268|160:216,1,100,0|0,0:0|0:0,0:0:0:0:
352,68,95346,2,0,P|364:116|352:168,1,100,0|0,1:0|0:0,0:0:0:0:
200,264,95846,6,0,B|248:304|256:344|256:344|264:304|312:264,2,200,0|0|0,0:0|1:0|0:0,0:0:0:0:
216,136,97096,2,0,P|244:112|296:176,2,100,0|0|0,0:0|1:0|0:0,0:0:0:0:
392,104,97846,69,4,0:0:0:0:
0,96,98096,1,0,0:0:0:0:
32,96,98221,1,0,0:0:0:0:
64,96,98346,2,0,L|168:96,1,100,0|0,1:0|0:0,0:0:0:0:
120,288,98846,1,0,0:0:0:0:
512,288,99096,1,0,0:0:0:0:
480,288,99221,1,0,0:0:0:0:
448,288,99346,2,0,L|344:288,1,100,0|0,1:0|0:0,0:0:0:0:
256,40,99846,5,0,0:0:0:0:
336,192,100096,1,0,0:0:0:0:
256,352,100346,1,0,1:0:0:0:
176,192,100596,1,0,1:0:0:0:
256,272,100846,1,0,0:0:0:0:
92,188,101096,1,0,2:0:0:0:
256,120,101346,1,0,1:0:0:0:
428,204,101596,1,0,0:0:0:0:
352,176,101846,6,0,B|360:148|384:116|424:104|464:116|492:140|504:176,2,200,4|0|0,0:0|0:0|0:0,0:0:0:0:
428,204,103096,1,0,0:0:0:0:
428,204,103346,1,0,0:0:0:0:
160,208,103846,6,0,B|152:236|128:268|88:280|48:268|20:244|8:208,2,200
84,180,105096,1,0,0:0:0:0:
84,180,105346,1,0,0:0:0:0:
256,152,105846,70,0,L|256:48,1,100
256,232,106346,2,0,L|256:336,1,100
288,152,106846,2,0,L|320:24,1,100
224,232,107346,2,0,L|192:360,1,100
32,192,107846,6,0,L|136:192,1,100
480,192,108346,2,0,L|376:192,1,100
288,224,108846,2,0,L|416:288,1,100
224,160,109346,2,0,L|96:96,1,100
440,112,109846,69,0,0:0:0:0:
440,112,110096,1,0,0:0:0:0:
296,344,110346,2,0,P|260:360|200:356,1,100
416,184,110846,1,0,0:0:0:0:
416,184,111096,1,0,0:0:0:0:
200,356,111346,2,0,P|148:328|132:292,1,100
384,260,111846,5,0,0:0:0:0:
384,260,112096,1,0,0:0:0:0:
132,292,112346,2,0,P|136:232|164:200,1,100
348,336,112846,1,0,0:0:0:0:
348,336,113096,1,0,0:0:0:0:
348,336,113346,1,0,0:0:0:0:
256,48,113846,70,0,L|348:96,1,100
256,216,114346,2,0,L|344:168,1,100
256,48,114846,2,0,L|160:96,1,100
256,216,115346,2,0,L|168:168,1,100
256,288,115846,6,0,L|344:336,1,100,4|0,0:2|0:0,0:0:0:0:
256,216,116346,2,0,L|344:168,1,100
256,288,116846,2,0,L|164:336,1,100
256,216,117346,2,0,L|164:172,1,100
164,72,117846,5,0,0:0:0:0:
164,72,118346,1,0,0:0:0:0:
36,172,118846,2,0,L|24:272,1,100
96,340,119346,2,0,L|108:240,1,100
228,192,119846,6,0,B|264:124|264:124|368:88,1,150.000005722046,4|0,0:0|0:0,0:0:0:0:
352,192,120346,2,0,B|320:264|320:264|216:312,1,150.000005722046,0|0,0:0|0:0,0:0:0:0:
128,80,120846,1,0,0:0:0:0:
224,140,121096,1,0,0:0:0:0:
128,184,121346,2,0,L|128:288,1,100
256,52,121846,5,0,0:0:0:0:
256,52,122096,1,0,0:0:0:0:
392,136,122346,1,0,0:0:0:0:
392,136,122596,1,0,0:0:0:0:
392,280,122846,1,0,0:0:0:0:
392,280,123096,1,0,0:0:0:0:
256,360,123346,1,0,0:0:0:0:
256,360,123596,1,0,0:0:0:0:
256,192,123846,70,0,B|208:128|208:128|96:100,1,150.000005722046,4|0,0:0|0:0,0:0:0:0:
124,196,124346,2,0,B|172:260|172:260|280:288,1,150.000005722046,0|0,0:0|0:0,0:0:0:0:
372,96,124846,2,0,L|372:196,2,100
472,36,125596,1,0,0:0:0:0:
256,52,125846,5,0,0:0:0:0:
256,52,126096,1,0,0:0:0:0:
120,140,126346,1,0,0:0:0:0:
120,140,126596,1,0,0:0:0:0:
120,288,126846,1,0,0:0:0:0:
120,288,127096,1,0,0:0:0:0:
256,360,127346,1,0,0:0:0:0:
256,360,127596,1,0,0:0:0:0:
224,40,127846,70,0,B|228:120|300:120|296:212,1,150.000005722046,4|0,0:0|0:0,0:0:0:0:
292,40,128346,2,0,B|292:116|212:116|224:216,1,150.000005722046
416,284,128846,1,0,0:0:0:0:
416,284,129096,1,0,0:0:0:0:
128,284,129346,2,0,L|228:284,1,100
192,32,129846,5,0,0:0:0:0:
192,32,130096,1,0,0:0:0:0:
96,128,130346,1,0,0:0:0:0:
96,128,130596,1,0,0:0:0:0:
96,256,130846,1,0,0:0:0:0:
96,256,131096,1,0,0:0:0:0:
192,352,131346,1,0,0:0:0:0:
192,352,131596,1,0,0:0:0:0:
256,160,131846,70,0,B|332:144|332:144|420:88,1,150.000005722046,4|0,0:0|0:0,0:0:0:0:
256,224,132346,2,0,B|176:236|176:236|104:280,1,150.000005722046,0|0,0:0|0:0,0:0:0:0:
352,192,132846,1,0,0:0:0:0:
160,192,133096,1,0,0:0:0:0:
320,128,133346,1,0,0:0:0:0:
192,256,133596,1,0,0:0:0:0:
320,32,133846,5,0,0:0:0:0:
320,32,134096,1,0,0:0:0:0:
416,128,134346,1,0,0:0:0:0:
416,128,134596,1,0,0:0:0:0:
416,256,134846,1,0,0:0:0:0:
416,256,135096,1,0,0:0:0:0:
320,352,135346,1,0,0:0:0:0:
320,352,135596,1,0,0:0:0:0:
256,192,135846,69,0,0:0:0:0:
224,192,136096,1,0,0:0:0:0:
192,192,136346,1,0,0:0:0:0:
160,192,136596,1,0,0:0:0:0:
128,192,136846,1,0,0:0:0:0:
96,192,137096,1,0,0:0:0:0:
64,192,137346,1,0,0:0:0:0:
256,32,137846,5,0,0:0:0:0:
288,32,138096,1,0,0:0:0:0:
320,32,138346,1,0,0:0:0:0:
352,32,138596,1,0,0:0:0:0:
384,32,138846,1,0,0:0:0:0:
416,32,139096,1,0,0:0:0:0:
448,32,139346,1,0,0:0:0:0:
256,192,139846,69,0,0:0:0:0:
224,192,140096,1,0,0:0:0:0:
192,192,140346,1,0,0:0:0:0:
160,192,140596,1,0,0:0:0:0:
128,192,140846,1,0,0:0:0:0:
96,192,141096,1,0,0:0:0:0:
64,192,141346,1,0,0:0:0:0:
256,352,141846,5,0,0:0:0:0:
288,352,142096,1,0,0:0:0:0:
320,352,142346,1,0,0:0:0:0:
352,352,142596,1,0,0:0:0:0:
384,352,142846,1,0,0:0:0:0:
416,352,143096,1,0,0:0:0:0:
448,352,143346,1,0,0:0:0:0:
448,352,143596,1,0,0:0:0:0:
