osu file format v5

[General]
AudioFilename: Hizaki_Grace_Project_-_Philosopher.mp3
AudioLeadIn: 0
PreviewTime: -1
Countdown: 1
SampleSet: Normal
StackLeniency: 0.7
Mode: 0
LetterboxInBreaks: 1

[Metadata]
Title:Philosopher
Artist:Hizaki Grace Project
Creator:Nixsa87
Version:Easy
Source:
Tags:hizaki grace project philosopher

[Difficulty]
HPDrainRate:5
CircleSize:5
OverallDifficulty:5
SliderMultiplier:1.4
SliderTickRate:1

[Events]
//Background and Video events
0,0,"hizaki-versailles.jpg"
1,-384,"hizaki2.wmv"
//Break Periods
//Storyboard Layer 0 (Background)
//Storyboard Layer 1 (Failing)
//Storyboard Layer 2 (Passing)
//Storyboard Layer 3 (Foreground)
//Storyboard Sound Samples
//Background Colour Transformations
3,100,0,0,0

[TimingPoints]
360,642.308706508562,4,1,0,100,1

[Colours]
Combo1 : 192,192,192
Combo2 : 128,128,128
Combo3 : 192,192,192
Combo4 : 128,128,128

[HitObjects]
64,128,360,2,0,B|192:32,1,280
256,128,2286,6,0,B|96:256,1,140
128,256,3571,2,0,B,1,140
288,256,4213,2,0,B|128:128|192:192,1,140
32,160,5498,6,0,B|256:64|480:192,1,420
288,128,8710,1,0
288,128,9994,1,0
224,160,10636,5,0
224,224,11278,1,0
288,160,11920,1,0
288,224,12563,1,0
224,160,13205,1,0
224,224,13847,1,0
288,160,14489,1,0
128,96,15775,5,0
256,96,16417,1,0
384,96,17060,1,0
384,288,18344,5,0
256,288,18986,1,0
128,288,19629,1,0
256,192,20913,12,0,23483
160,160,26052,5,0
288,160,27336,1,0
416,160,28621,1,0
416,256,29906,1,0
288,256,31190,1,0
160,256,32475,1,0
32,256,33760,1,0
32,160,35044,1,0
160,160,36329,1,0
224,160,37613,1,0
288,160,38898,1,0
288,224,40183,1,0
224,224,40825,1,0
160,224,41467,1,0
192,128,42752,5,0
288,128,44036,1,0
288,288,45321,1,0
128,288,46606,2,0,B,1,280
288,320,49175,1,0
192,192,50460,5,0
320,192,51744,1,0
96,192,53029,5,0
320,192,54313,1,0
320,192,55598,2,0,B|224:288|64:288,1,280
288,192,58167,5,0
416,192,59452,1,0
288,192,60737,1,0
288,192,62021,1,0
128,192,63306,5,0
160,192,63948,1,0
352,192,65875,1,0
320,192,66517,1,0
128,128,68444,6,0,B|288:96|384:224|320:352|320:352|320:320,3,280
288,224,73583,1,0
256,224,74225,1,0
192,160,76152,1,0
224,160,76794,1,0
128,256,78721,6,0,B|288:288|384:160|320:32|320:32|320:64,3,280
288,224,83860,1,0
256,224,84502,1,0
192,160,85144,1,0
224,160,85787,1,0
224,160,87071,5,0
224,224,88356,1,0
288,160,89640,1,0
288,224,90925,1,0
224,160,92210,5,0
224,224,92852,1,0
288,160,93494,1,0
288,224,94137,1,0
224,160,94779,1,0
224,224,95421,1,0
288,160,96063,1,0
160,224,97348,5,0
96,224,97990,1,0
32,224,98633,1,0
96,224,99917,1,0
160,224,100560,1,0
96,224,101202,1,0
416,224,102487,5,0
480,224,103129,1,0
416,224,103772,1,0
352,224,105056,1,0
416,224,105699,1,0
480,224,106341,1,0
