osu file format v14

[General]
AudioFilename: ujicoclone xeno.mp3
AudioLeadIn: 0
PreviewTime: 43882
Countdown: 0
SampleSet: Soft
StackLeniency: 0.7
Mode: 0
LetterboxInBreaks: 0
WidescreenStoryboard: 0

[Editor]
DistanceSpacing: 1
BeatDivisor: 4
GridSize: 4
TimelineZoom: 2.4

[Metadata]
Title:XENO
TitleUnicode:XΣNΦ
Artist:Hitsuji to Ojisan
ArtistUnicode:ひつじとおじさん
Creator:toybot
Version:Standard
Source:BMS
Tags:ujico clone spectator kenterz kenterz9 lust bof2013 bms of fighters 2013 fantasia tano-c dtm チームたのしいDTM
BeatmapID:459468
BeatmapSetID:193373

[Difficulty]
HPDrainRate:4
CircleSize:3.5
OverallDifficulty:4
ApproachRate:5
SliderMultiplier:1
SliderTickRate:1

[Events]
//Background and Video events
0,0,"resized.jpg",0,0
//Break Periods
2,23437,26553
2,64727,71070
//Storyboard Layer 0 (Background)
//Storyboard Layer 1 (Fail)
//Storyboard Layer 2 (Pass)
//Storyboard Layer 3 (Foreground)
//Storyboard Sound Samples

[TimingPoints]
12,322.58064516129,4,2,0,5,1,0
2270,-111.111111111111,4,2,30,20,0,0
2592,-111.111111111111,4,3,30,50,0,0
2673,-111.111111111111,4,2,30,50,0,0
3882,-111.111111111111,4,2,30,20,0,0
5173,-111.111111111111,4,2,30,35,0,0
6463,-111.111111111111,4,2,30,25,0,0
7753,-111.111111111111,4,2,30,30,0,0
10818,-111.111111111111,4,2,0,40,0,0
11624,-111.111111111111,4,2,0,50,0,0
12270,-111.111111111111,4,2,0,60,0,0
13560,-111.111111111111,4,2,30,40,0,0
23237,-111.111111111111,4,2,30,60,0,0
27753,-111.111111111111,4,2,2,40,0,0
28399,-111.111111111111,4,2,2,50,0,0
43237,-111.111111111111,4,2,3,50,0,0
43882,-111.111111111111,4,2,1,60,0,0
52915,-111.111111111111,4,2,1,65,0,0
54205,-111.111111111111,4,2,1,70,0,0
64528,-111.111111111111,4,2,30,70,0,0
72592,-111.111111111111,4,2,1,30,0,0
73560,-111.111111111111,4,2,1,33,0,0
74850,-111.111111111111,4,2,30,55,0,0
75011,-111.111111111111,4,2,30,40,0,0
85173,-99.9999999999999,4,3,1,55,0,1
103237,-99.9999999999999,4,3,1,65,0,0
105818,-95.2380952380952,4,2,1,55,0,1
120011,-95.2380952380952,4,1,1,55,0,1
121302,-95.2380952380952,4,1,1,60,0,1
126463,-95.2380952380952,4,1,1,70,0,0
126947,-95.2380952380952,4,1,1,30,0,0
127915,-95.2380952380952,4,1,1,40,0,0
128399,-95.2380952380952,4,1,1,50,0,0
128882,-95.2380952380952,4,1,1,60,0,0
129366,-95.2380952380952,4,1,1,65,0,0
129689,-95.2380952380952,4,2,1,5,0,0
130011,322.58064516129,4,2,30,80,1,1
130091,-200,4,2,4,20,0,0
146785,-200,4,2,4,15,0,0
147269,-200,4,2,4,5,0,0
147752,-200,4,2,4,10,0,0
148559,-200,4,2,30,10,0,0

[Colours]
Combo1 : 70,70,255
Combo2 : 192,192,192
Combo3 : 77,166,255
Combo4 : 0,96,191

[HitObjects]
24,136,2270,5,2,0:0:0:0:
40,224,2592,2,0,B|124:196|108:104|108:104|196:188|320:124,1,359.999989013672,4|2,1:3|0:0,0:0:0:0:
452,28,4528,1,2,0:0:0:0:
472,208,5173,6,0,B|411:250|333:208|333:208|316:257|316:257|253:205|162:234,1,359.999989013672,2|2,0:0|0:0,0:0:0:0:
32,356,7108,1,2,0:0:0:0:
12,176,7753,1,2,0:0:0:0:
256,192,9044,12,6,12915,0:0:0:0:
124,176,14205,5,4,0:1:0:0:
68,248,14528,1,4,0:1:0:0:
116,324,14850,2,0,L|216:320,1,89.9999972534181,2|0,0:0|0:0,0:0:0:0:
288,356,15495,6,0,B|284:292|284:292|296:244|296:244|292:168,1,179.999994506836,4|0,0:1|0:0,0:0:0:0:
216,132,16463,1,0,0:0:0:0:
288,80,16786,2,0,P|336:88|376:124,2,89.9999972534181,4|4|2,0:1|0:1|0:0,0:0:0:0:
116,128,18076,6,0,P|120:248|88:292,1,179.999994506836,4|0,0:1|0:0,0:0:0:0:
140,364,19044,1,4,0:1:0:0:
216,316,19366,2,0,B|334:301|278:337|394:321,1,179.999994506836,4|0,0:1|0:0,0:0:0:0:
256,192,20657,5,2,0:3:0:0:
256,192,20979,12,4,23237,1:3:0:0:
84,176,27753,6,0,P|128:204|176:196,1,89.9999972534181,2|8,0:0|0:0,0:0:0:0:
236,148,28399,6,0,L|232:48,2,89.9999972534181,2|8|2,0:0|0:0|0:0,0:0:0:0:
296,216,29366,1,8,0:0:0:0:
236,284,29689,2,0,P|287:307|384:228,1,179.999994506836,2|2,0:0|0:0,0:0:0:0:
360,156,30657,1,8,0:0:0:0:
272,132,30979,6,0,L|168:144,1,89.9999972534181,2|8,0:0|0:0,0:0:0:0:
144,60,31624,2,0,L|248:48,1,89.9999972534181,2|8,0:0|0:0,0:0:0:0:
324,56,32270,2,0,P|372:48|424:64,2,89.9999972534181,2|8|2,0:0|0:0|0:0,0:0:0:0:
272,132,33237,1,8,0:0:0:0:
340,188,33560,6,0,P|360:232|336:328,2,134.999995880127,6|0|8,0:0|0:0|0:0,0:0:0:0:
272,132,34850,2,0,L|176:136,1,89.9999972534181,2|8,0:0|0:0,0:0:0:0:
92,116,35495,1,2,0:0:0:0:
20,168,35818,1,8,0:0:0:0:
28,256,36141,6,0,B|96:260|96:260|140:248|140:248|212:252,1,179.999994506836,2|2,0:0|0:0,0:0:0:0:
256,180,37108,1,8,0:0:0:0:
308,252,37431,2,0,P|352:260|408:248,1,89.9999972534181,2|8,0:0|0:0,0:0:0:0:
440,176,38076,2,0,P|396:168|340:180,1,89.9999972534181,2|8,0:0|0:0,0:0:0:0:
300,104,38721,6,0,P|248:116|120:100,1,179.999994506836,4|2,0:0|0:0,0:0:0:0:
48,52,39689,1,8,0:0:0:0:
36,140,40011,2,0,L|32:236,1,89.9999972534181,2|8,0:0|0:0,0:0:0:0:
124,224,40657,2,0,L|128:320,1,89.9999972534181,2|8,0:0|0:0,0:0:0:0:
216,336,41302,6,0,B|260:352|304:340|304:340|352:324|400:344,1,179.999994506836,2|0,0:0|0:0,0:0:0:0:
440,264,42270,2,0,L|432:168,1,89.9999972534181,10|2,0:0|0:0,0:0:0:0:
460,88,42915,1,8,0:0:0:0:
372,64,43237,5,6,0:0:0:0:
298,234,43882,6,0,P|315:279|405:319,2,134.999995880127,4|2|12,0:0|0:0|1:0,0:0:0:0:
301,146,45173,2,0,P|346:129|386:39,2,134.999995880127,4|2|12,0:0|0:0|1:0,0:0:0:0:
213,149,46463,2,0,P|196:104|106:64,2,134.999995880127,4|2|12,0:0|0:0|1:0,0:0:0:0:
213,234,47753,2,0,P|168:251|128:341,2,134.999995880127,4|0|12,0:0|0:0|1:0,0:0:0:0:
300,212,49044,6,0,L|444:220,1,134.999995880127,4|2,0:0|0:0,0:0:0:0:
360,108,50011,1,12,1:0:0:0:
272,120,50334,2,0,P|228:148|208:236,1,134.999995880127,4|2,0:0|0:0,0:0:0:0:
300,324,51302,1,12,1:0:0:0:
332,232,51624,6,0,P|376:224|424:240,2,89.9999972534181,4|8|2,0:0|1:2|0:0,0:0:0:0:
244,252,52592,1,8,1:0:0:0:
252,164,52915,2,0,L|240:64,2,89.9999972534181,2|8|2,0:0|1:0|0:0,0:0:0:0:
244,252,53882,1,8,1:0:0:0:
308,312,54205,6,0,L|408:304,1,89.9999972534181,4|12,0:0|1:0,0:0:0:0:
484,260,54850,2,0,P|492:208|476:168,1,89.9999972534181,4|12,0:0|1:0,0:0:0:0:
388,136,55495,2,0,L|298:143,1,89.9999972534181,4|12,0:0|1:0,0:0:0:0:
328,48,56141,2,8,L|394:45,2,44.999998626709,4|0|12,0:0|0:0|1:0,0:0:0:0:
228,48,56786,6,0,P|184:40|128:56,1,89.9999972534181,4|12,0:0|1:0,0:0:0:0:
140,148,57431,2,0,P|184:156|240:140,1,89.9999972534181,4|12,0:0|1:0,0:0:0:0:
324,172,58076,2,0,P|360:188|384:240,1,89.9999972534181,4|12,0:0|1:0,0:0:0:0:
308,296,58721,2,0,P|272:280|248:228,1,89.9999972534181,4|12,0:0|1:0,0:0:0:0:
168,180,59366,6,0,B|172:240|172:240|168:260|168:260|172:320,2,134.999995880127,4|2|12,0:0|0:0|1:0,0:0:0:0:
232,104,60657,2,0,P|288:88|376:112,2,134.999995880127,4|2|12,0:0|0:0|1:0,0:0:0:0:
168,180,61947,5,4,0:0:0:0:
224,260,62270,1,12,1:0:0:0:
312,220,62592,2,0,L|412:216,1,89.9999972534181,2|12,0:0|1:0,0:0:0:0:
408,316,63237,5,4,0:0:0:0:
312,344,63560,1,12,1:0:0:0:
224,304,63882,1,12,1:0:0:0:
188,212,64205,2,0,B|180:144|196:184|188:108,1,89.9999972534181,10|2,1:2|0:3,0:0:0:0:
256,192,72270,12,0,74205,0:0:0:0:
56,160,74850,6,0,L|156:156,1,89.9999972534181,4|4,0:0|0:1,0:0:0:0:
236,116,75495,2,0,P|244:172|232:212,1,89.9999972534181
180,284,76141,2,0,B|296:276|240:300|376:292,1,179.999994506836,4|2,0:1|0:0,0:0:0:0:
456,120,77431,6,0,P|412:76|368:68,1,89.9999972534181,4|4,0:1|0:1,0:0:0:0:
336,64,77915,1,0,0:0:0:0:
292,88,78076,2,0,P|260:120|252:168,1,89.9999972534181
300,248,78721,5,4,0:1:0:0:
356,168,79044,1,4,0:1:0:0:
292,88,79366,2,0,L|140:84,1,134.999995880127,2|0,0:0|0:0,0:0:0:0:
116,104,80011,6,0,P|120:176|116:212,1,89.9999972534181,4|0,0:1|0:0,0:0:0:0:
72,284,80657,2,0,P|144:276|180:288,1,89.9999972534181
196,312,81141,1,4,0:1:0:0:
196,312,81302,6,0,L|304:308,1,89.9999972534181,4|4,0:1|0:1,0:0:0:0:
376,348,81947,2,0,B|384:304|384:304|372:244,1,89.9999972534181,0|0,0:0|0:0,0:0:0:0:
304,188,82592,1,2,0:3:0:0:
256,192,82753,12,2,84528,0:0:0:0:
372,280,85173,6,0,L|376:172,1,100,4|8,0:2|0:0,0:0:0:0:
316,88,85818,2,0,P|260:100|204:92,1,100,4|8,0:0|0:0,0:0:0:0:
164,76,86302,1,0,0:0:0:0:
112,92,86463,2,0,P|64:132|56:188,1,100,2|8,0:2|0:0,0:0:0:0:
60,276,87108,2,0,L|114:278|168:280,1,100,2|8,0:2|0:0,0:0:0:0:
264,244,87753,6,0,P|265:195|268:132,2,100,4|8|0,0:2|0:0|0:0,0:0:0:0:
212,340,88721,1,8,0:0:0:0:
320,348,89044,2,0,P|368:364|432:340,2,100,2|8|2,0:2|0:0|0:2,0:0:0:0:
372,264,90011,1,8,0:0:0:0:
312,172,90334,5,4,0:2:0:0:
392,96,90657,2,0,P|336:60|288:64,1,100,8|0,0:0|0:0,0:0:0:0:
204,100,91302,2,0,L|212:164,2,50,8|0|0,0:0|0:0|0:0,0:0:0:0:
112,44,91947,2,0,P|96:96|112:156,1,100,8|0,0:0|0:0,0:0:0:0:
140,244,92592,1,8,0:0:0:0:
92,344,92915,6,0,B|144:364|184:356|224:316|224:316|250:318|300:320,1,200,4|0,0:2|0:0,0:0:0:0:
372,256,93882,2,0,L|440:264,1,50,8|0,0:0|0:0,0:0:0:0:
408,152,94366,2,0,L|476:160,1,50,0|8,0:0|0:0,0:0:0:0:
444,48,94850,2,0,P|392:40|336:72,1,100,0|8,0:0|0:0,0:0:0:0:
268,136,95495,6,0,P|196:172|92:112,1,200,4|0,0:2|0:0,0:0:0:0:
188,64,96463,1,8,0:0:0:0:
268,136,96786,2,0,P|272:184|268:248,1,100,2|8,0:2|0:0,0:0:0:0:
348,312,97431,2,0,P|400:308|464:312,2,100,2|8|4,0:2|0:0|0:2,0:0:0:0:
244,348,98399,5,8,0:0:0:0:
136,328,98721,2,0,L|24:340,1,100,0|8,0:0|0:0,0:0:0:0:
88,240,99366,2,0,P|144:228|196:248,1,100,2|8,0:2|0:0,0:0:0:0:
288,204,100011,2,0,P|335:216|383:204,1,100,2|8,0:2|0:0,0:0:0:0:
460,124,100657,6,0,L|448:12,2,100,4|8|0,0:2|0:0|0:0,0:0:0:0:
384,204,101624,2,0,L|392:264,1,50,8|0,0:0|0:0,0:0:0:0:
312,332,102108,2,0,L|305:282,2,50,0|8|0,0:0|0:0|0:0,0:0:0:0:
260,352,102592,2,0,P|200:364|148:352,1,100,0|8,0:0|0:0,0:0:0:0:
76,292,103237,6,0,L|84:176,1,100,4|8,0:2|0:0,0:0:0:0:
64,140,103721,2,0,P|120:144|184:136,1,100,4|8,0:2|0:0,0:0:0:0:
208,160,104205,2,0,P|260:156|324:160,1,100,4|4,0:2|1:0,0:0:0:0:
208,304,105818,6,0,P|128:312|56:264,2,157.499995193482,4|12|12,0:0|1:0|1:0,0:0:0:0:
304,240,107108,2,0,P|384:232|456:280,2,157.499995193482,4|12|12,0:0|1:0|1:0,0:0:0:0:
208,176,108399,6,0,P|128:184|56:136,2,157.499995193482,4|12|12,0:0|1:0|1:0,0:0:0:0:
304,112,109689,2,0,P|384:104|456:152,2,157.499995193482,4|12|12,0:0|1:0|1:0,0:0:0:0:
200,160,110979,6,0,P|144:120|140:16,2,157.499995193482,4|12|12,0:0|1:0|1:0,0:0:0:0:
224,248,112270,2,0,P|184:304|80:308,2,157.499995193482,4|12|12,0:0|1:0|1:0,0:0:0:0:
312,224,113560,2,0,P|368:264|372:368,2,157.499995193482,12|4|12,1:0|0:0|1:0,0:0:0:0:
288,136,114850,2,0,P|328:80|432:76,2,157.499995193482,12|4|12,1:0|0:0|1:0,0:0:0:0:
228,224,116141,6,0,L|232:348,1,104.999996795654,4|12,0:0|1:0,0:0:0:0:
336,340,116786,2,0,P|356:292|336:220,1,104.999996795654,2|12,0:0|1:0,0:0:0:0:
308,144,117431,2,0,B|264:141|264:141|247:144|247:144|187:141,1,104.999996795654,2|12,0:0|1:0,0:0:0:0:
112,192,118076,1,2,0:0:0:0:
60,100,118399,1,12,1:0:0:0:
156,52,118721,6,0,P|224:36|272:56,1,104.999996795654,4|12,0:0|1:0,0:0:0:0:
300,80,119205,1,0,0:0:0:0:
300,80,119366,2,0,L|296:200,1,104.999996795654,2|12,0:0|1:0,0:0:0:0:
228,264,120011,6,0,P|196:216|209:128,2,139.999995727539,4|4|4,0:2|0:2|0:2,0:0:0:0:
356,288,121302,6,0,L|360:172,1,104.999996795654,4|8,0:0|0:0,0:0:0:0:
408,88,121947,2,0,B|356:80|356:80|304:92,1,104.999996795654,0|8,0:0|0:0,0:0:0:0:
264,124,122431,1,0,0:0:0:0:
220,152,122592,2,0,P|164:168|104:152,1,104.999996795654,4|8,0:0|0:0,0:0:0:0:
28,104,123237,2,0,L|32:228,1,104.999996795654,0|8,0:0|0:0,0:0:0:0:
24,312,123882,6,0,P|64:300|96:304,1,52.4999983978272,4|0,0:0|0:0,0:0:0:0:
124,320,124205,2,0,L|184:328,1,52.4999983978272,8|0,0:0|0:0,0:0:0:0:
224,308,124528,2,0,P|236:256|216:192,1,104.999996795654,0|8,0:0|0:0,0:0:0:0:
160,124,125173,6,0,L|296:128,1,104.999996795654,4|8,0:0|0:0,0:0:0:0:
356,76,125818,1,4,0:2:0:0:
400,172,126140,2,0,L|396:240,1,52.4999983978272,8|0,0:0|0:0,0:0:0:0:
372,272,126463,1,4,0:0:0:0:
256,192,126947,12,4,130011,1:3:0:0:
356,144,130656,6,0,P|312:96|180:104,1,200
136,196,132591,2,0,L|140:300,1,100
40,248,133881,1,2,0:0:0:0:
260,224,135172,6,0,B|336:228|336:228|388:216|388:216|460:220,1,200,0|2,0:0|0:0,0:0:0:0:
300,64,137752,2,0,P|212:40|116:88,1,200,0|2,0:0|0:0,0:0:0:0:
76,188,139688,1,0,0:0:0:0:
132,284,140333,6,0,B|168:272|184:288|184:288|200:280|200:280|224:296|284:300|328:276,1,200,0|2,0:0|0:0,0:0:0:0:
368,176,142269,1,0,0:0:0:0:
288,100,142914,2,0,P|224:88|184:104,2,100,0|0|2,0:0|0:0|0:0,0:0:0:0:
256,316,145494,6,0,B|244:256|268:276|256:208,1,100,2|0,0:0|0:0,0:0:0:0:
256,108,146785,2,0,P|204:104|164:132,1,100
152,184,147752,6,0,L|156:312,1,125,0|10,0:0|0:3,0:0:0:0:
