osu file format v12

[General]
AudioFilename: Kagamine Rin and Len - The Wolf that Fell in Love with Little Red Riding Hood (English Subtitles).mp3
AudioLeadIn: 0
PreviewTime: 43959
Countdown: 0
SampleSet: Soft
StackLeniency: 0.8
Mode: 0
LetterboxInBreaks: 1
WidescreenStoryboard: 0

[Editor]
DistanceSpacing: 1
BeatDivisor: 4
GridSize: 4

[Metadata]
Title:Ookami wa Akazukin ni Koi wo Shita
TitleUnicode:おおかみは赤ずきんに恋をした
Artist:HitoshizukuP x Yama
ArtistUnicode:ひとしずく×やま
Creator:CloudySkyes
Version:Hard
Source:Vocaloid
Tags:Kagamine Rin Len Vocaloid
BeatmapID:328214
BeatmapSetID:130002

[Difficulty]
HPDrainRate:5
CircleSize:3
OverallDifficulty:5
ApproachRate:7
SliderMultiplier:1.6
SliderTickRate:1

[Events]
//Background and Video events
0,0,"The.Wolf.Fell.In.Love.With.Red.Riding.Hood..jpg",0,0
//Break Periods
2,64159,72747
2,124159,140560
//Storyboard Layer 0 (Background)
//Storyboard Layer 1 (Fail)
//Storyboard Layer 2 (Pass)
//Storyboard Layer 3 (Foreground)
//Storyboard Sound Samples
//Background Colour Transformations
3,100,163,162,255

[TimingPoints]
3960,312.5,4,2,0,100,1,0
33960,-200,4,2,0,100,0,0
43960,-100,4,2,0,100,0,1
63960,-100,4,2,0,100,0,0
82553,-142.857142857143,4,2,0,100,0,0
83491,-100,4,2,0,100,0,0
93960,-200,4,2,0,100,0,0
103960,-100,4,2,0,100,0,1
123960,-100,4,2,0,100,0,0
152710,-200,4,2,0,100,0,0
155210,-142.857142857143,4,2,0,100,0,0
165210,-100,4,2,0,100,0,1
185210,-100,4,2,0,100,0,0
204585,-100,4,2,0,5,0,0

[Colours]
Combo1 : 172,162,83
Combo2 : 28,227,163
Combo3 : 251,69,49
Combo4 : 13,168,242

[HitObjects]
128,288,13647,5,0,0:0:0:0:
128,288,13960,2,0,P|176:227|253:230,1,160
344,260,14428,2,0,P|295:320|218:317,1,160
76,188,15053,1,0,0:0:0:0:
240,84,15366,1,0,0:0:0:0:
292,164,15522,1,0,0:0:0:0:
292,164,15991,2,0,L|372:184,2,80
195,172,16460,6,0,P|117:187|38:178,1,160
80,92,16928,2,0,P|158:76|237:85,1,160
237,85,17553,2,0,L|308:32,2,80
196,172,18022,1,0,0:0:0:0:
196,172,18335,6,0,L|196:252,1,80
280,324,18647,2,0,L|280:240,1,80
332,159,18960,2,0,P|358:130|393:112,2,80
380,244,19428,1,0,0:0:0:0:
192,280,19741,1,0,0:0:0:0:
192,280,20053,2,0,B|167:239|150:280|134:239|122:280|105:239|93:280|77:239|64:280|48:239,1,160
52,144,20522,2,0,B|68:100|84:144|100:100|116:144|132:100|148:144|164:100|180:144|196:100,1,160
256,32,20991,1,0,0:0:0:0:
324,100,21147,5,0,0:0:0:0:
416,76,21303,1,0,0:0:0:0:
476,152,21460,2,0,B|476:184|476:216|443:242|408:242|371:241,1,160
288,196,21928,2,0,B|253:195|217:195|185:221|185:253|185:285,1,160
256,192,22553,12,0,23647,0:0:0:0:
152,143,23960,6,0,P|222:111|294:142,1,160
352,220,24428,2,0,P|399:282|474:304,1,160
464,200,24897,1,0,0:0:0:0:
403,123,25053,2,0,P|335:84|256:82,1,160
172,132,25522,1,0,0:0:0:0:
172,132,25991,5,0,0:0:0:0:
80,68,26147,1,0,0:0:0:0:
72,180,26303,1,0,0:0:0:0:
172,132,26460,2,0,L|332:160,1,160
376,260,26928,2,0,L|216:232,1,160
124,248,27397,1,0,0:0:0:0:
100,340,27553,2,0,P|37:294|35:217,1,160
104,148,28022,1,0,0:0:0:0:
104,148,28335,2,0,P|141:159|180:152,1,80
228,68,28647,2,0,P|190:56|151:63,1,80
104,148,28960,6,0,B|79:199|41:206|104:227|69:238|48:303,1,160
167,268,29585,2,0,P|204:283|243:278,2,80
216,184,30053,2,0,B|240:132|278:125|216:104|250:93|271:28,1,160
372,40,30522,1,0,0:0:0:0:
467,52,30678,2,0,P|430:119|354:132,1,160
244,108,31147,1,0,0:0:0:0:
160,184,31303,1,0,0:0:0:0:
244,256,31460,6,0,L|384:336,1,160
476,312,31928,1,0,0:0:0:0:
380,144,32241,1,0,0:0:0:0:
256,192,32553,12,0,33647,0:0:0:0:
304,276,33960,6,0,P|348:280|384:272,2,80
168,192,34897,1,0,0:0:0:0:
167,191,35053,2,0,P|128:187|88:191,1,80
19,151,35522,6,0,P|3:115|2:75,2,80
88,296,36460,6,0,P|132:304|232:248,1,160
260,96,37397,1,0,0:0:0:0:
260,96,37553,2,0,L|280:176,1,80
320,244,38022,6,0,L|320:288,1,40
404,328,38335,2,0,L|404:288,1,40
484,216,38647,2,0,L|484:256,1,40
404,328,38960,6,0,L|248:296,1,160
100,236,39897,1,0,0:0:0:0:
100,236,40053,2,0,L|180:208,1,80
224,144,40522,1,0,0:0:0:0:
384,136,40835,1,0,0:0:0:0:
224,144,41147,1,0,0:0:0:0:
256,192,41460,12,0,43647,0:0:0:0:
312,52,43960,2,0,P|332:85|338:125,1,80
268,192,44272,2,0,P|247:158|241:118,1,80
336,124,44585,2,0,P|375:117|413:127,1,80
452,216,44897,2,0,P|412:222|374:212,1,80
284,252,45210,6,0,P|248:269|208:271,1,80
149,193,45522,2,0,P|184:175|224:173,1,80
209,268,45835,2,0,P|210:307|197:344,1,80
106,374,46147,2,0,P|104:334|117:297,1,80
132,200,46460,6,0,L|108:116,1,80
172,48,46772,2,0,L|200:136,1,80
292,124,47085,2,0,L|316:47,1,80
378,122,47397,2,0,L|356:198,1,80
312,284,47710,6,0,L|312:328,6,40
408,276,48335,1,0,0:0:0:0:
256,92,48647,1,0,0:0:0:0:
256,92,48960,5,0,0:0:0:0:
256,188,49116,1,0,0:0:0:0:
340,140,49272,1,0,0:0:0:0:
255,91,49428,2,0,P|177:89|112:134,1,160
100,232,49897,1,0,0:0:0:0:
192,264,50053,1,0,0:0:0:0:
256,192,50210,2,0,B|256:171|256:150|256:133|256:119|238:119,1,80
148,92,50522,1,0,0:0:0:0:
160,188,50678,2,0,L|192:352,1,160
256,164,51303,1,0,0:0:0:0:
255,163,51460,6,0,P|279:92|354:91,1,160
412,168,51928,2,0,P|388:239|313:240,1,160
255,163,52397,2,0,P|219:148|181:155,1,80
104,216,52710,2,0,L|112:256,3,40
128,300,53022,2,0,L|160:336,3,40
200,348,53335,1,0,0:0:0:0:
308,188,53647,1,0,0:0:0:0:
308,188,53960,6,0,P|332:152|340:112,2,80
244,116,54428,2,0,P|176:104|84:108,1,160
24,184,54897,1,0,0:0:0:0:
96,248,55053,1,0,0:0:0:0:
192,236,55210,2,0,L|268:212,1,80
344,272,55522,2,0,L|268:296,1,80
136,156,55991,1,0,0:0:0:0:
136,156,56303,1,0,0:0:0:0:
52,112,56460,6,0,P|35:75|28:36,1,80
124,52,56772,2,0,L|212:52,1,80
296,80,57085,1,0,0:0:0:0:
388,112,57241,2,0,P|432:112|476:88,2,80
292,120,57710,6,0,B|232:117|289:153|274:122|274:122|261:91|272:157|256:124|243:93|254:161|239:128|239:128|225:95|259:139|217:130,1,160
200,324,58335,2,0,B|259:326|202:291|217:321|217:321|230:352|219:286|235:319|248:350|237:282|252:315|252:315|266:348|233:304|274:313,1,160
272,312,58960,6,0,P|287:234|265:158,1,160
168,152,59428,2,0,P|204:83|279:66,1,160
372,96,59897,1,0,0:0:0:0:
340,184,60053,1,0,0:0:0:0:
244,200,60210,2,0,P|166:214|87:204,1,160
20,132,60678,1,0,0:0:0:0:
20,132,60991,5,0,0:0:0:0:
80,204,61147,1,0,0:0:0:0:
84,300,61303,1,0,0:0:0:0:
4,247,61460,2,0,P|80:224|159:223,1,160
252,256,61928,2,0,P|328:279|407:280,1,160
476,212,62397,1,0,0:0:0:0:
408,144,62553,1,0,0:0:0:0:
312,140,62710,6,0,L|280:168,3,40
236,180,63022,2,0,L|192:184,3,40
148,196,63335,2,0,L|68:228,1,80
76,128,63647,2,0,L|232:68,1,160
180,240,73647,5,0,0:0:0:0:
348,144,73960,1,0,0:0:0:0:
348,144,74272,2,0,P|373:113|387:75,1,80
488,40,74741,1,0,0:0:0:0:
488,232,75053,2,0,L|488:312,2,80
488,136,75522,1,0,0:0:0:0:
488,136,75991,2,0,B|448:136|448:136|420:108,2,80
483,39,76460,6,0,P|411:12|343:50,1,160
324,144,76928,2,0,P|264:191|195:161,1,160
44,44,77553,1,0,0:0:0:0:
44,44,77866,2,0,L|18:119,1,80
20,120,78491,2,0,P|40:154|71:178,2,80
112,92,78960,6,0,L|280:100,1,160
348,160,79428,2,0,L|388:232,1,80
296,264,79741,2,0,L|324:340,1,80
416,368,80053,2,0,P|488:328|504:252,2,160
272,240,80991,1,0,0:0:0:0:
200,180,81147,1,0,0:0:0:0:
108,200,81303,1,0,0:0:0:0:
44,272,81460,6,0,P|106:318|184:311,1,160
276,276,81928,2,0,P|213:229|135:236,1,160
64,172,82397,1,0,0:0:0:0:
92,79,82553,2,0,P|244:46|313:186,1,335.999989746094
288,280,83647,1,0,0:0:0:0:
196,304,83803,1,0,0:0:0:0:
100,300,83960,6,0,P|63:283|37:254,2,80
196,304,84428,2,0,P|224:224|192:152,1,160
197,157,85053,2,0,L|328:64,1,160
420,40,85522,1,0,0:0:0:0:
420,40,85835,2,0,L|420:120,3,80
352,188,86460,6,0,P|273:196|208:153,1,160
208,156,86928,2,0,P|142:198|64:190,1,160
36,96,87397,1,0,0:0:0:0:
116,44,87553,2,0,L|196:44,2,80
36,96,88022,2,0,L|36:256,1,160
96,332,88491,1,0,0:0:0:0:
192,332,88647,1,0,0:0:0:0:
252,256,88803,1,0,0:0:0:0:
252,256,88881,1,0,0:0:0:0:
252,256,88960,6,0,L|332:240,1,80
376,156,89272,2,0,L|456:144,1,80
512,224,89585,1,0,0:0:0:0:
440,284,89741,1,0,0:0:0:0:
344,280,89897,1,0,0:0:0:0:
252,256,90053,2,0,P|174:240|97:260,2,160
252,256,90991,2,0,L|232:336,2,80
268,159,91460,6,0,P|263:83|195:47,1,160
100,56,91928,1,0,0:0:0:0:
28,232,92241,1,0,0:0:0:0:
28,232,92553,6,0,P|94:274|172:272,1,160
244,208,93022,2,0,L|320:164,1,80
236,108,93335,2,0,L|312:68,1,80
404,64,93647,2,0,L|444:64,3,40
480,80,93960,6,0,L|480:168,2,80
388,212,94897,1,0,0:0:0:0:
388,212,95053,2,0,L|388:292,1,80
328,344,95522,6,0,P|288:342|250:329,2,80
220,224,96460,6,0,L|60:264,1,160
4,116,97397,1,0,0:0:0:0:
4,116,97553,2,0,L|84:124,1,80
160,152,98022,6,0,L|176:164,3,20
208,188,98335,2,0,L|224:208,3,20
248,236,98647,2,0,L|264:264,2,20
344,216,98960,6,0,L|424:200,1,80
168,216,99585,2,0,L|88:200,1,80
256,152,100210,2,0,L|256:72,1,80
256,72,100835,1,0,0:0:0:0:
256,232,101147,1,0,0:0:0:0:
256,192,101460,12,0,103647,0:0:0:0:
268,280,103960,6,0,L|346:296,1,80
352,200,104272,2,0,L|430:217,1,80
416,124,104585,2,0,L|495:134,1,80
492,232,104897,1,0,0:0:0:0:
444,316,105053,1,0,0:0:0:0:
347,324,105210,6,0,P|275:338|246:270,1,160
236,176,105678,2,0,P|157:165|86:198,1,160
56,288,106147,1,0,0:0:0:0:
132,344,106303,1,0,0:0:0:0:
228,328,106460,6,0,L|276:264,1,80
356,320,106772,2,0,L|396:248,1,80
464,184,107085,2,0,P|486:151|494:112,1,80
432,40,107397,2,0,P|409:72|401:111,1,80
316,156,107710,6,0,L|220:160,1,80
236,159,107944,1,0,0:0:0:0:
236,160,108022,2,0,L|144:164,1,80
120,252,108335,2,0,L|216:248,1,80
200,249,108569,1,0,0:0:0:0:
200,248,108647,2,0,L|292:244,1,80
368,288,108960,6,0,P|384:324|415:347,1,80
456,260,109272,2,0,P|439:223|408:200,1,80,0|0,0:0|0:0,0:0:0:0:
312,200,109585,2,0,P|280:223|264:259,1,80,0|0,0:0|0:0,0:0:0:0:
356,284,109897,2,0,P|339:320|308:343,1,80
212,344,110210,5,0,0:0:0:0:
140,284,110366,1,0,0:0:0:0:
176,196,110522,1,0,0:0:0:0:
268,168,110678,2,0,L|428:164,1,160
484,244,111147,1,0,0:0:0:0:
396,280,111303,1,0,0:0:0:0:
308,240,111460,6,0,P|290:163|225:120,1,160
224,120,111928,2,0,L|128:248,1,160
128,248,112397,2,0,P|89:237|57:214,1,80
36,120,112710,6,0,L|36:80,6,40
128,152,113335,1,0,0:0:0:0:
312,96,113647,1,0,0:0:0:0:
312,95,113960,6,0,P|282:70|243:69,1,80
244,164,114272,2,0,L|244:244,1,80
180,316,114585,2,0,P|209:341|248:342,1,80
340,320,114897,1,0,0:0:0:0:
388,236,115053,1,0,0:0:0:0:
344,148,115210,6,0,L|268:176,2,80
288,68,115678,2,0,L|172:108,2,120
384,56,116303,1,0,0:0:0:0:
456,120,116460,6,0,L|456:200,1,80
372,248,116772,2,0,L|372:168,1,80
304,100,117085,1,0,0:0:0:0:
220,148,117241,1,0,0:0:0:0:
216,244,117397,1,0,0:0:0:0:
292,304,117553,1,0,0:0:0:0:
372,248,117710,6,0,P|433:197|508:169,2,160
196,324,118647,1,0,0:0:0:0:
196,324,118960,6,0,P|274:335|348:308,1,160
416,240,119428,2,0,P|434:163|407:88,1,160
324,44,119897,1,0,0:0:0:0:
248,100,120053,1,0,0:0:0:0:
232,196,120210,6,0,P|195:264|119:280,1,160
44,224,120678,1,0,0:0:0:0:
44,224,120991,1,0,0:0:0:0:
40,320,121147,1,0,0:0:0:0:
136,332,121303,1,0,0:0:0:0:
224,292,121460,6,0,P|261:277|300:272,1,80
364,344,121772,2,0,P|326:358|287:363,1,80
223,291,122085,2,0,P|209:254|207:215,2,80
300,236,122553,1,0,0:0:0:0:
336,148,122710,6,0,L|376:136,3,40
420,128,123022,2,0,L|464:128,3,40
496,160,123335,2,0,L|496:240,1,80
408,276,123647,2,0,L|408:112,1,160
160,192,141460,5,0,0:0:0:0:
160,192,141616,1,0,0:0:0:0:
352,192,141928,1,0,0:0:0:0:
352,192,142085,1,0,0:0:0:0:
256,192,142397,12,0,143960,0:0:0:0:
408,292,145210,5,0,0:0:0:0:
368,292,146460,5,0,0:0:0:0:
328,292,147710,5,0,0:0:0:0:
328,188,148960,5,0,0:0:0:0:
256,276,149272,1,0,0:0:0:0:
184,188,149585,1,0,0:0:0:0:
256,100,149897,1,0,0:0:0:0:
368,84,150210,5,0,0:0:0:0:
399,109,151460,5,0,0:0:0:0:
430,134,152710,6,0,L|386:201,1,80
324,252,153178,2,0,P|287:266|247:266,1,80
176,228,153647,2,0,L|132:160,1,80,0|0,0:0|0:0,0:0:0:0:
172,87,154116,2,0,P|208:72|248:69,1,80
324,92,154585,1,0,0:0:0:0:
428,212,154897,1,0,0:0:0:0:
256,356,155210,5,0,0:0:0:0:
256,320,156460,5,0,0:0:0:0:
256,280,157710,6,0,L|292:228,1,55.9999982910157
216,180,158022,2,0,L|250:135,1,55.9999982910157
168,104,158335,2,0,P|202:61|256:50,1,111.999996582031
344,60,158803,1,0,0:0:0:0:
400,128,158960,6,0,L|416:184,1,55.9999982910157
356,248,159272,2,0,L|356:308,1,55.9999982910157
264,304,159585,2,0,L|248:360,1,55.9999982910157
160,360,159897,1,0,0:0:0:0:
84,312,160053,1,0,0:0:0:0:
64,152,160210,5,0,0:0:0:0:
64,152,161460,5,0,0:0:0:0:
64,152,162710,6,0,P|99:194|151:215,1,111.999996582031
244,212,163178,2,0,P|295:191|331:148,1,111.999996582031
368,60,163647,2,0,L|416:92,1,55.9999982910157
460,176,163960,5,0,0:0:0:0:
460,176,164116,1,0,0:0:0:0:
459,176,165210,6,0,P|421:187|381:185,1,80
312,120,165522,1,0,0:0:0:0:
224,76,165678,2,0,L|64:104,1,160
36,196,166147,1,0,0:0:0:0:
100,268,166303,1,0,0:0:0:0:
196,252,166460,6,0,P|230:232|257:203,1,80
252,108,166772,1,0,0:0:0:0:
260,204,166928,2,0,L|275:363,1,160
372,364,167397,1,0,0:0:0:0:
416,280,167553,1,0,0:0:0:0:
392,188,167710,6,0,L|315:166,1,80
220,148,168022,1,0,0:0:0:0:
152,216,168178,2,0,P|139:292|185:356,1,160
280,340,168647,1,0,0:0:0:0:
356,280,168803,1,0,0:0:0:0:
392,188,168960,6,0,B|372:132|372:132|372:120|372:120|384:128|384:128|372:132|372:132|308:128,1,160
120,188,169585,2,0,B|140:132|140:132|140:120|140:120|128:128|128:128|140:132|140:132|204:128,1,160
200,128,170210,6,0,P|239:129|275:111,2,80
108,152,170678,2,0,L|132:312,1,160
220,352,171147,1,0,0:0:0:0:
308,312,171303,1,0,0:0:0:0:
356,228,171460,6,0,P|363:188|353:150,2,80
268,192,171928,1,0,0:0:0:0:
268,192,172241,1,0,0:0:0:0:
172,176,172397,1,0,0:0:0:0:
120,256,172553,1,0,0:0:0:0:
192,324,172710,6,0,P|268:343|347:332,1,160
352,236,173178,2,0,P|275:216|196:227,1,160
256,192,173647,12,0,174897,0:0:0:0:
200,192,175210,6,0,L|176:116,1,80
280,112,175522,2,0,L|280:32,1,80
376,76,175835,2,0,L|400:0,1,80,0|0,0:0|0:0,0:0:0:0:
500,28,176147,1,0,0:0:0:0:
500,132,176303,1,0,0:0:0:0:
412,188,176460,6,0,L|260:240,1,160
180,172,176928,2,0,L|332:120,1,160
436,120,177397,1,0,0:0:0:0:
488,208,177553,1,0,0:0:0:0:
400,264,177710,6,0,L|316:272,1,80
332,168,178022,2,0,L|252:175,1,80
280,76,178335,2,0,L|196:84,1,80
100,60,178647,1,0,0:0:0:0:
20,128,178803,1,0,0:0:0:0:
44,228,178960,6,0,P|91:291|163:323,1,160
163,323,179585,2,0,L|224:268,2,80
60,304,180053,1,0,0:0:0:0:
48,200,180210,6,0,L|48:116,1,80
120,48,180522,1,0,0:0:0:0:
216,92,180678,2,0,L|216:252,1,160
268,344,181147,1,0,0:0:0:0:
364,300,181303,1,0,0:0:0:0:
356,196,181460,6,0,L|324:120,1,80
228,156,181772,1,0,0:0:0:0:
144,216,181928,2,0,L|68:68,1,160
160,20,182397,1,0,0:0:0:0:
256,56,182553,1,0,0:0:0:0:
256,192,182710,12,0,183960,0:0:0:0:
256,248,184428,6,0,L|256:164,1,80
256,192,184897,12,0,188647,0:0:0:0:
256,292,189272,6,0,L|256:332,2,40
256,196,189585,2,0,L|256:32,1,160
256,192,190210,12,0,193647,0:0:0:0:
256,364,193960,6,0,L|256:324,3,40
256,284,194272,2,0,L|256:240,3,40
256,204,194585,6,0,L|256:160,3,40
256,124,194897,2,0,L|256:80,3,40
252,44,195210,6,0,L|172:32,1,80
160,112,195522,2,0,L|80:100,1,80
68,180,195835,2,0,L|148:192,1,80
120,268,196147,2,0,L|200:280,1,80
272,312,196460,6,0,P|308:327|348:329,2,80
248,236,196928,1,0,0:0:0:0:
211,163,197085,2,0,P|173:152|133:151,2,80
248,236,197553,1,0,0:0:0:0:
324,256,197710,6,0,L|408:244,1,80
368,172,198022,2,0,L|452:160,1,80
464,80,198335,2,0,L|380:92,1,80
372,12,198647,2,0,L|288:24,1,80
231,76,198960,6,0,P|194:87|154:84,2,80
308,104,199428,1,0,0:0:0:0:
388,108,199585,2,0,P|424:123|464:125,2,80
308,104,200053,1,0,0:0:0:0:
272,176,200210,6,0,L|220:248,1,80
292,288,200522,2,0,L|244:352,1,80
164,344,200835,2,0,L|80:344,1,80
92,264,201147,2,0,L|12:264,1,80
8,184,201460,6,0,L|8:104,2,80
88,172,201928,1,0,0:0:0:0:
168,168,202085,2,0,L|168:248,2,80
248,164,202553,1,0,0:0:0:0:
320,128,202710,6,0,L|376:64,1,80
192,128,203178,2,0,L|136:64,1,80
256,192,203647,12,0,204585,0:0:0:0:
