osu file format v9

[General]
AudioFilename: Something Green.mp3
AudioLeadIn: 0
PreviewTime: 29022
Countdown: 0
SampleSet: Soft
StackLeniency: 0.7
Mode: 0
LetterboxInBreaks: 0

[Editor]
DistanceSpacing: 1
BeatDivisor: 4
GridSize: 8

[Metadata]
Title:Something Green
Artist:Hitoshi Sakimoto
Creator:7odoa
Version:Loop 2
Source:Gradius V
Tags:Konami ost Original Sound Track Playstation Treasure

[Difficulty]
HPDrainRate:4
CircleSize:4
OverallDifficulty:4
ApproachRate:5
SliderMultiplier:1.6
SliderTickRate:1

[Events]
//Background and Video events
0,0,"Gradius.jpg"
//Break Periods
2,44466,50451
//Storyboard Layer 0 (Background)
//Storyboard Layer 1 (Fail)
//Storyboard Layer 2 (Pass)
//Storyboard Layer 3 (Foreground)
//Storyboard Sound Samples
//Background Colour Transformations
3,100,163,162,255

[TimingPoints]
1805.36859826821,461.538461538462,4,2,1,60,1,0
14613,-100,4,1,1,60,0,0
29497,-100,4,1,1,60,0,1
44266,-100,4,1,1,60,0,0
59036,-100,4,1,1,60,0,1
73580,-100,4,2,1,60,0,1
73805,-100,4,2,1,60,0,0

[Colours]
Combo1 : 127,0,255
Combo2 : 84,232,0
Combo3 : 55,55,255
Combo4 : 255,127,0

[HitObjects]
72,80,5497,22,0,B|72:240,1,160,0|2
232,240,6420,2,0,B|232:64,1,160,0|2
312,216,7343,5,4
384,72,7805,1,8
456,216,8266,1,0
312,136,8728,1,8
232,136,8959,1,0
152,136,9189,6,0,B|152:296,2,160,0|8|0
232,280,10574,2,0,B|320:280,2,80,12|4|4
344,168,11497,5,8
216,72,11959,2,0,B|296:72|296:72|376:32,2,160,0|8|0
216,232,13343,2,0,B|216:136,2,80,8|0|0
216,71,14266,2,0,B|120:71,1,80,8|0
136,152,14728,5,4
280,152,15189,2,0,B|360:152|360:152|432:200,1,160,8|0
352,232,15882,1,0
424,272,16113,2,0,B|360:320|360:320|256:320,1,160,8|0
256,168,17036,6,0,B|200:112|200:112|120:112,1,160,8|0
48,144,17728,1,0
112,192,17959,2,0,B|152:248|152:248|256:248,1,160,8|4
400,280,18882,6,0,B|400:208|400:208|320:168,1,160,8|0
248,208,19574,2,0,B|208:208|208:208|160:168,1,80,0|8
288,72,20266,5,8
360,104,20497,1,8
432,72,20728,1,8
360,104,20959,1,8
288,136,21189,2,8,B|208:136,1,80
128,136,21651,2,8,B|88:136,2,40
128,216,22113,6,0,B|240:216,2,80,4|0|8
128,296,22805,1,0
208,296,23036,2,0,B|288:296|288:296|376:256,1,160,0|8
256,144,23959,6,0,B|304:144|304:144|360:168,2,80,0|0|8
104,88,24882,2,0,B|104:192,1,80
104,248,25343,1,8
264,280,25805,6,0,B|296:320|296:320|352:320,1,80,4|0
324,239,26266,2,0,B|365:240|365:240|404:195,1,80,8|0
324,164,26728,2,0,B|156:164,1,160,0|8
288,88,27651,6,0,B|368:88,1,80
446,104,28113,2,0,B|446:168|374:168,1,80,8|0
324,164,28574,2,0,B|148:164,2,160,0|8|4
256,32,29959,5,8
96,32,30420,2,0,B|184:32,1,80
176,112,30882,1,8
136,264,31343,6,0,B|168:240|168:240|216:240,1,80,4|0
192,320,31805,2,0,B|240:320|240:320|272:288,1,80,8|0
344,296,32266,2,0,B|432:296|432:184,1,160,0|8
272,184,33189,5,4
192,48,33651,1,8
352,48,34113,2,0,B|440:48,2,80,0|0|8
216,128,35036,6,0,B|312:128,2,80,0|0|8
176,200,35728,1,0
136,128,35959,2,0,B|96:56,1,80,8|8
56,128,36420,2,0,B|96:200,1,80,8|8
176,200,36882,5,4
328,200,37343,2,0,B|328:104|432:104,1,160,8|0
408,184,38036,1,0
488,168,38266,2,0,B|488:264|384:264,1,160,8|4
248,336,39189,6,0,B|152:336|152:336|104:296,1,160,8|0
168,248,39882,1,0
104,192,40113,2,0,B|152:160|152:160|256:160,1,160,8|4
120,72,41036,6,0,B|32:72,2,80,8|0|0
200,72,41728,2,0,B|288:72,2,80,0|8|0
256,192,42420,12,4,44266
32,32,51651,22,0,B|32:192,1,160,0|8
32,272,52343,1,0
104,312,52574,2,0,B|104:152,1,160,0|8
216,40,53497,6,0,B|328:40,1,80
376,40,53959,1,8
416,112,54189,2,0,B|320:112,1,80
496,112,54882,1,8
496,280,55343,6,0,B|440:336|440:336|352:336,1,160,0|8
280,336,56036,1,0
320,264,56266,2,0,B|408:264|408:264|456:208,1,160,0|8
456,48,57189,5,0
376,48,57420,2,0,B|296:48,1,80,0|8
296,128,57882,1,0
216,128,58113,2,0,B|136:128,1,80
136,48,58574,2,0,B|40:48,1,80,8|0
56,128,59036,6,4,B|56:304,1,160,4|8
136,288,59728,1,0
136,208,59959,2,0,B|176:208|176:208|216:288|216:288|264:288,1,160,0|8
408,288,60882,6,0,B|472:240|472:240,1,80,4|0
472,160,61343,1,8
472,80,61574,2,0,B|408:32|408:32,1,80,0|0
336,176,62266,1,8
208,88,62728,6,0,B|184:40|184:40|64:40,1,160,4|8
80,120,63420,1,0
152,160,63651,2,0,B|320:160,1,160,0|8
472,152,64574,6,0,B|472:40,2,80,0|0|8
400,192,65266,1,0
472,232,65497,2,8,B|472:312,1,80,8|8
400,272,65959,2,0,B|344:328,1,80,8|0
264,328,66420,5,4
104,328,66882,2,0,B|16:328,1,80,8|0
24,248,67343,1,0
184,248,67805,2,0,B|344:248,1,160,8|4
344,88,68728,6,0,B|424:88,1,80,8|0
424,168,69189,2,0,B|312:168,1,80,0|0
264,168,69651,1,8
104,168,70113,5,4
104,328,70574,2,0,B|104:232,1,80,8|0
184,248,71036,2,0,B|184:80,1,160,0|8
256,192,71959,12,4,73805
200,128,74266,5,8
360,128,74728,2,0,B|400:128|400:128|448:168,2,80,0|0|8
432,272,75651,5,0
272,272,76113,1,8
272,112,76574,2,0,B|192:112,2,80,0|0|8
112,112,77497,5,0
112,272,77959,1,8
272,272,78420,2,0,B|192:272,1,80
192,192,78882,1,8
264,48,79343,6,0,B|312:16|312:16|416:16,1,160,0|8
376,88,80036,2,0,B|456:88|456:88|480:176,1,160
400,160,80728,2,0,B|400:248,1,80,8|0
400,320,81189,6,0,B|360:344|360:344|320:344,1,80,0|2
328,264,81651,2,0,B|280:264|280:264|240:288,1,80,8|2
200,344,82113,2,0,B|32:344,1,160,0|10
48,176,83036,5,0
128,176,83266,1,2
88,248,83497,2,0,B|176:248|176:248,1,80,8|2
208,176,83959,2,0,B|376:176,1,160,0|10
456,40,84882,5,0
456,120,85113,1,2
456,200,85343,2,0,B|456:304|456:304|416:352,1,160,8|0
384,272,86036,1,2
352,200,86266,2,0,B|312:240|312:240|312:352,1,160,8|2
168,328,87189,6,0,B|168:240,1,80,8|2
24,328,87882,2,0,B|24:248,1,80,0|10
96,208,88343,1,2
96,128,88574,6,0,B|96:48,2,80,4|2|8
256,128,89497,2,0,B|256:232,2,80,0|2|8
408,80,90420,5,0
336,40,90651,1,2
336,120,90882,1,8
408,160,91113,2,0,B|408:240,1,80,2|0
336,272,91574,2,0,B|336:192,1,80,2|8
236,64,92266,5,4
168,24,92497,1,2
168,104,92728,2,0,B|168:264,1,160,8|0
168,344,93420,1,2
100,304,93651,1,8
96,120,94113,6,0,B|136:48|136:48|216:48,1,160,2|8
296,48,94805,2,0,B|384:48|384:48|432:128,1,160,2|0
344,128,95497,2,0,B|240:128,1,80,10|2
264,208,95959,5,4
344,208,96189,1,2
304,280,96420,2,0,B|208:280,1,80,8|2
144,280,96882,2,0,B|48:280,2,80,0|2|8
128,120,97805,6,0,B|56:48,2,80,0|2|8
280,64,98728,2,0,B|320:64|320:64|360:48,1,80,0|2
440,48,99189,1,8
360,192,99651,6,0,B|360:280,2,80,4|2|8
288,224,100343,1,2
288,144,100574,2,0,B|288:64,2,80,0|2|8
288,304,101497,6,0,B|184:304,2,80,0|2|8
368,304,102189,1,2
328,236,102420,2,0,B|240:236,2,80,0|2|8
292,164,103113,1,2
372,164,103343,21,4
