osu file format v9

[General]
AudioFilename: Something Green.mp3
AudioLeadIn: 0
PreviewTime: 29022
Countdown: 0
SampleSet: Soft
StackLeniency: 0.7
Mode: 0
LetterboxInBreaks: 0

[Editor]
DistanceSpacing: 1
BeatDivisor: 4
GridSize: 8

[Metadata]
Title:Something Green
Artist:Hitoshi Sakimoto
Creator:7odoa
Version:Loop 1
Source:Gradius V
Tags:Konami ost Original Sound Track Playstation Treasure

[Difficulty]
HPDrainRate:3
CircleSize:3
OverallDifficulty:3
ApproachRate:3
SliderMultiplier:1.1
SliderTickRate:1

[Events]
//Background and Video events
0,0,"Gradius.jpg"
//Break Periods
2,44466,50211
2,74005,79749
//Storyboard Layer 0 (Background)
//Storyboard Layer 1 (Fail)
//Storyboard Layer 2 (Pass)
//Storyboard Layer 3 (Foreground)
//Storyboard Sound Samples
//Background Colour Transformations
3,100,163,162,255

[TimingPoints]
1805.36859826821,461.538461538462,4,2,1,60,1,0
14497,-100,4,1,1,60,0,0
29497,-100,4,1,1,60,0,1
44266,-100,4,1,1,60,0,0
59036,-100,4,1,1,60,0,1
73574,-100,4,2,1,60,0,1
73805,-100,4,2,1,60,0,0

[Colours]
Combo1 : 127,0,255
Combo2 : 84,232,0
Combo3 : 55,55,255
Combo4 : 255,127,0

[HitObjects]
336,48,5497,22,0,B|112:48,2,220,0|0|4
408,128,7805,5,8
192,128,8728,1,8
80,320,9651,1,8
304,320,10574,1,8
192,320,11036,5,4
232,216,11497,2,0,B|111:217|111:217|64:128,1,220,8|8
288,128,13343,2,0,B|408:126|408:126|456:216,1,220,8|8
344,216,14728,5,4
232,216,15189,2,0,B|96:200|128:56,1,220
232,104,16574,5,0
344,112,17036,2,0,B|344:216|344:216|432:304,1,220,8|8
320,312,18420,5,4
216,272,18882,1,8
120,216,19343,2,0,B|96:168|96:168|96:104,1,110,0|8
168,32,20266,5,0
248,104,20728,1,8
360,104,21189,2,0,B|480:104,1,110,0|8
472,216,22113,5,4
424,312,22574,2,0,B|312:312|312:312|312:184,1,220,8|8
201,204,23959,6,0,B|201:332,2,110,0|8|0
201,94,25343,2,0,B|273:94|273:30,1,110,8|4
383,30,26266,6,0,B|383:166|383:166|415:254,1,220,8|8
312,288,27651,5,0
200,288,28113,2,0,B|64:288,1,110,8|0
16,208,29036,2,0,B|136:208,1,110,8|4
160,104,29959,6,0,B|208:64|208:64|304:64|304:64|360:104,1,220,8|8
256,152,31343,1,4
352,200,31805,2,0,B|304:240|304:240|208:240|208:240|152:200,1,220,8|8
48,204,33189,5,4
104,112,33651,2,0,B|216:112,2,110,8|0|8
160,208,35036,2,0,B|328:208,2,165,0|0|8
232,288,36882,5,4
344,288,37343,2,0,B|464:288,2,110,8|0|8
344,177,38728,5,4
234,177,39189,2,0,B|234:57,2,110,8|0|8
146,113,40574,5,4
58,177,41036,1,8
146,241,41497,1,0
234,177,41959,1,8
256,192,42420,12,4,44266
56,48,51651,38,0,B|432:48,1,330,4|8
424,152,53497,5,0
312,152,53959,1,8
368,248,54420,1,0
424,344,54882,1,8
312,344,55343,6,0,B|264:244|264:244|216:344|216:344|160:244,1,330,4|8
104,344,57189,5,0
48,248,57651,1,8
104,152,58113,1,0
104,40,58574,1,8
216,40,59036,6,0,B|280:104|280:104|408:104,1,220,4|0
488,184,60420,1,8
376,184,60882,6,0,B|248:184|248:184|160:96,1,220,4|0
72,112,62266,1,8
144,192,62728,6,0,B|216:264|216:264|352:264,1,220,4|0
408,344,64113,1,8
296,344,64574,6,0,B|186:344|186:344|136:296,2,165,4|4|4
376,272,66420,6,0,B|456:192|456:192|456:80,1,220,4|0
376,160,67805,1,8
376,48,68266,6,0,B|296:128|296:128|296:240,1,220,4|0
256,336,69651,1,8
144,336,70113,6,0,B|64:256|64:256|64:144,1,220,4|0
144,224,71497,1,8
256,192,71959,12,4,73805
40,64,81189,6,0,B|224:64|160:336|360:336,1,440,4|0
456,336,83497,1,2
376,256,83959,1,0
456,184,84420,1,2
376,112,84882,6,0,B|304:112|304:112|232:80|232:80|160:80,2,220,4|0|0
420,212,87189,1,2
358,304,87651,1,0
252,271,88113,1,2
256,160,88574,6,0,B|176:160|176:160|104:224,2,165,4|0|0
256,48,90420,6,2,B|312:32|376:64,1,110
304,152,91343,2,2,B|368:152|415:198,1,110
328,272,92266,6,0,B|392:272|392:272|432:288|432:288|488:288,2,165,4|0|0
224,320,94113,6,2,B|168:352|96:320,1,110
184,240,95036,2,2,B|112:248|64:184,1,110
184,152,95959,6,0,B|96:128|64:24,2,165,4|0|0
264,72,97805,6,2,B|304:24|384:24,1,110
336,128,98728,2,2,B|392:101|464:144,1,110,2|2
368,216,99651,6,0,B|448:208|494:321,2,165,4|0|0
328,320,101497,5,2
216,320,101959,2,2,B|216:256,1,55,0|2
105,265,102651,2,0,B|105:201,3,55,0|2|0|4
