osu file format v14

[General]
AudioFilename: 06 perthed again (yambabom remix).mp3
AudioLeadIn: 0
PreviewTime: 106997
Countdown: 0
SampleSet: Normal
StackLeniency: 0.7
Mode: 1
LetterboxInBreaks: 0
WidescreenStoryboard: 1

[Editor]
Bookmarks: 32330,40330,42997,61664,85664,96330,148164
DistanceSpacing: 0.8
BeatDivisor: 4
GridSize: 4
TimelineZoom: 2.1

[Metadata]
Title:perthed again (yambabom remix)
TitleUnicode:perthed again (yambabom remix)
Artist:Hitori Tori
ArtistUnicode:Hitori Tori
Creator:tsubaki131
Version:Oni
Source:
Tags:huepike tasuke912 [Hatano miKuru] keneeeee
BeatmapID:699022
BeatmapSetID:313081

[Difficulty]
HPDrainRate:6
CircleSize:4
OverallDifficulty:6
ApproachRate:5
SliderMultiplier:1.4
SliderTickRate:2

[Events]
//Background and Video events
0,0,"uh.png",0,0
//Break Periods
2,85875,95141
//Storyboard Layer 0 (Background)
//Storyboard Layer 1 (Fail)
//Storyboard Layer 2 (Pass)
//Storyboard Layer 3 (Foreground)
//Storyboard Sound Samples

[TimingPoints]
342,333.333333333333,4,1,0,100,1,0
40341,-125,4,1,0,100,0,0
43008,-133.333333333333,4,1,0,100,0,0
61675,-125,4,1,0,100,0,0
64341,-100,4,1,0,100,0,0
107008,-100,4,1,0,100,0,0
117675,-83.3333333333333,4,1,0,100,0,0
127008,-66.6666666666667,4,1,0,100,0,0
128341,-100,4,1,0,100,0,1
149675,-100,4,1,0,100,0,1
171008,-100,4,1,0,100,0,0

[Colours]
Combo1 : 255,0,0
Combo2 : 255,128,64

[HitObjects]
256,192,342,5,4,0:0:0:0:
256,192,508,1,0,0:0:0:0:
256,192,841,1,0,0:0:0:0:
256,192,1008,1,0,0:0:0:0:
256,192,1341,1,2,0:0:0:0:
256,192,1675,1,0,0:0:0:0:
256,192,2008,1,2,0:0:0:0:
256,192,2175,1,0,0:0:0:0:
256,192,2508,1,0,0:0:0:0:
256,192,2675,1,2,0:0:0:0:
256,192,3008,1,4,0:0:0:0:
256,192,3175,1,0,0:0:0:0:
256,192,3508,1,0,0:0:0:0:
256,192,3675,1,0,0:0:0:0:
256,192,4008,1,2,0:0:0:0:
256,192,4341,1,0,0:0:0:0:
256,192,4675,1,2,0:0:0:0:
256,192,4841,1,0,0:0:0:0:
256,192,5175,1,0,0:0:0:0:
256,192,5341,1,2,0:0:0:0:
256,192,5675,1,4,0:0:0:0:
256,192,5841,1,2,0:0:0:0:
256,192,6008,1,2,0:0:0:0:
256,192,6175,1,0,0:0:0:0:
256,192,6508,1,0,0:0:0:0:
256,192,6675,1,2,0:0:0:0:
256,192,7008,1,0,0:0:0:0:
256,192,7175,1,0,0:0:0:0:
256,192,7341,1,2,0:0:0:0:
256,192,7508,1,0,0:0:0:0:
256,192,7841,1,0,0:0:0:0:
256,192,7925,1,0,0:0:0:0:
256,192,8008,1,2,0:0:0:0:
256,192,8341,1,0,0:0:0:0:
256,192,8675,1,2,0:0:0:0:
256,192,8841,1,0,0:0:0:0:
256,192,9175,1,0,0:0:0:0:
256,192,9341,1,2,0:0:0:0:
256,192,9675,1,4,0:0:0:0:
256,192,9841,1,2,0:0:0:0:
256,192,9925,1,2,0:0:0:0:
256,192,10008,1,2,0:0:0:0:
256,192,10175,1,0,0:0:0:0:
256,192,10508,1,0,0:0:0:0:
256,192,10675,1,6,0:0:0:0:
256,192,11008,1,4,0:0:0:0:
256,192,11175,1,0,0:0:0:0:
256,192,11341,1,2,0:0:0:0:
256,192,11508,1,0,0:0:0:0:
256,192,11841,1,0,0:0:0:0:
256,192,12008,1,2,0:0:0:0:
256,192,12175,1,2,0:0:0:0:
256,192,12341,1,0,0:0:0:0:
256,192,12508,1,0,0:0:0:0:
256,192,12591,1,0,0:0:0:0:
256,192,12675,1,2,0:0:0:0:
256,192,12841,1,0,0:0:0:0:
256,192,13175,1,0,0:0:0:0:
256,192,13341,1,2,0:0:0:0:
256,192,13508,1,2,0:0:0:0:
256,192,13591,1,2,0:0:0:0:
256,192,13675,1,0,0:0:0:0:
256,192,13841,1,0,0:0:0:0:
256,192,14008,1,2,0:0:0:0:
256,192,14175,1,0,0:0:0:0:
256,192,14508,1,0,0:0:0:0:
256,192,14675,1,2,0:0:0:0:
256,192,14841,1,2,0:0:0:0:
256,192,15008,1,0,0:0:0:0:
256,192,15175,1,0,0:0:0:0:
256,192,15258,1,0,0:0:0:0:
256,192,15341,1,2,0:0:0:0:
256,192,15508,1,0,0:0:0:0:
256,192,15841,1,2,0:0:0:0:
256,192,16008,1,0,0:0:0:0:
256,192,16175,1,2,0:0:0:0:
256,192,16341,1,0,0:0:0:0:
256,192,16675,1,2,0:0:0:0:
256,192,16841,1,0,0:0:0:0:
256,192,17175,1,0,0:0:0:0:
256,192,17341,1,2,0:0:0:0:
256,192,17508,1,0,0:0:0:0:
256,192,17675,1,0,0:0:0:0:
256,192,17841,1,0,0:0:0:0:
256,192,17925,1,0,0:0:0:0:
256,192,18008,1,2,0:0:0:0:
256,192,18175,1,0,0:0:0:0:
256,192,18508,1,0,0:0:0:0:
256,192,18675,1,2,0:0:0:0:
256,192,18841,1,2,0:0:0:0:
256,192,19008,1,0,0:0:0:0:
256,192,19341,1,2,0:0:0:0:
256,192,19508,1,0,0:0:0:0:
256,192,19841,1,0,0:0:0:0:
256,192,20008,1,2,0:0:0:0:
256,192,20341,1,0,0:0:0:0:
256,192,20508,1,2,0:0:0:0:
256,192,20591,1,2,0:0:0:0:
256,192,20675,1,2,0:0:0:0:
256,192,20841,1,0,0:0:0:0:
256,192,21008,1,2,0:0:0:0:
256,192,21091,1,2,0:0:0:0:
256,192,21175,1,2,0:0:0:0:
256,192,21341,1,0,0:0:0:0:
256,192,21425,1,2,0:0:0:0:
256,192,21508,1,2,0:0:0:0:
256,192,21675,1,4,0:0:0:0:
256,192,21841,1,0,0:0:0:0:
256,192,21925,1,0,0:0:0:0:
256,192,22008,1,2,0:0:0:0:
256,192,22175,1,0,0:0:0:0:
256,192,22508,1,0,0:0:0:0:
256,192,22591,1,0,0:0:0:0:
256,192,22675,1,2,0:0:0:0:
256,192,23008,1,0,0:0:0:0:
256,192,23091,1,0,0:0:0:0:
256,192,23175,1,0,0:0:0:0:
256,192,23341,1,2,0:0:0:0:
256,192,23508,1,0,0:0:0:0:
256,192,23591,1,0,0:0:0:0:
256,192,23675,1,0,0:0:0:0:
256,192,23841,1,2,0:0:0:0:
256,192,24008,1,0,0:0:0:0:
256,192,24091,1,2,0:0:0:0:
256,192,24175,1,2,0:0:0:0:
256,192,24341,1,0,0:0:0:0:
256,192,24425,1,0,0:0:0:0:
256,192,24508,1,0,0:0:0:0:
256,192,24675,1,2,0:0:0:0:
256,192,24841,1,0,0:0:0:0:
256,192,24925,1,0,0:0:0:0:
256,192,25008,1,0,0:0:0:0:
256,192,25175,1,0,0:0:0:0:
256,192,25341,1,2,0:0:0:0:
256,192,25675,1,0,0:0:0:0:
256,192,25758,1,0,0:0:0:0:
256,192,25841,1,0,0:0:0:0:
256,192,26008,1,2,0:0:0:0:
256,192,26175,1,0,0:0:0:0:
256,192,26258,1,0,0:0:0:0:
256,192,26341,1,0,0:0:0:0:
256,192,26508,1,2,0:0:0:0:
256,192,26675,1,0,0:0:0:0:
256,192,26758,1,2,0:0:0:0:
256,192,26841,1,2,0:0:0:0:
256,192,27008,1,0,0:0:0:0:
256,192,27175,1,0,0:0:0:0:
256,192,27258,1,0,0:0:0:0:
256,192,27341,1,2,0:0:0:0:
256,192,27508,1,0,0:0:0:0:
256,192,27675,1,0,0:0:0:0:
256,192,27758,1,0,0:0:0:0:
256,192,27841,1,0,0:0:0:0:
256,192,28008,1,2,0:0:0:0:
256,192,28341,1,0,0:0:0:0:
256,192,28425,1,0,0:0:0:0:
256,192,28508,1,0,0:0:0:0:
256,192,28675,1,2,0:0:0:0:
256,192,28841,1,0,0:0:0:0:
256,192,28925,1,0,0:0:0:0:
256,192,29008,1,0,0:0:0:0:
256,192,29175,1,2,0:0:0:0:
256,192,29341,1,0,0:0:0:0:
256,192,29425,1,2,0:0:0:0:
256,192,29508,1,2,0:0:0:0:
256,192,29675,1,0,0:0:0:0:
268,184,29758,1,0,0:0:0:0:
256,192,29841,1,0,0:0:0:0:
256,192,30008,1,2,0:0:0:0:
256,192,30175,1,0,0:0:0:0:
256,192,30341,1,0,0:0:0:0:
256,192,30425,1,0,0:0:0:0:
256,192,30508,1,0,0:0:0:0:
256,192,30675,1,2,0:0:0:0:
256,192,31008,1,4,0:0:0:0:
256,192,31175,1,2,0:0:0:0:
256,192,31258,1,2,0:0:0:0:
268,184,31341,1,2,0:0:0:0:
256,192,31508,1,0,0:0:0:0:
256,192,31675,1,2,0:0:0:0:
256,192,31758,1,2,0:0:0:0:
256,192,31841,1,2,0:0:0:0:
256,192,32008,1,0,0:0:0:0:
256,192,32091,1,2,0:0:0:0:
256,192,32175,1,2,0:0:0:0:
256,192,32341,1,4,0:0:0:0:
256,192,32675,1,2,0:0:0:0:
256,192,32758,1,0,0:0:0:0:
256,192,32841,1,2,0:0:0:0:
256,192,33008,1,0,0:0:0:0:
256,192,33175,1,0,0:0:0:0:
256,192,33258,1,0,0:0:0:0:
256,192,33341,1,2,0:0:0:0:
256,192,33508,1,0,0:0:0:0:
256,192,33675,1,0,0:0:0:0:
256,192,33841,1,0,0:0:0:0:
256,192,33925,1,0,0:0:0:0:
256,192,34008,1,2,0:0:0:0:
256,192,34175,1,0,0:0:0:0:
256,192,34258,1,0,0:0:0:0:
256,192,34341,1,0,0:0:0:0:
256,192,34508,1,2,0:0:0:0:
256,192,34675,1,0,0:0:0:0:
256,192,34758,1,0,0:0:0:0:
256,192,34841,1,2,0:0:0:0:
256,192,35008,1,0,0:0:0:0:
256,192,35175,1,0,0:0:0:0:
256,192,35258,1,0,0:0:0:0:
256,192,35341,1,2,0:0:0:0:
256,192,35508,1,0,0:0:0:0:
256,192,35675,1,0,0:0:0:0:
256,192,35758,1,0,0:0:0:0:
256,192,35841,1,0,0:0:0:0:
256,192,36008,1,2,0:0:0:0:
256,192,36341,1,0,0:0:0:0:
256,192,36424,1,0,0:0:0:0:
256,192,36507,1,0,0:0:0:0:
256,192,36674,1,2,0:0:0:0:
256,192,36841,1,0,0:0:0:0:
256,192,36924,1,0,0:0:0:0:
256,192,37007,1,0,0:0:0:0:
256,192,37174,1,2,0:0:0:0:
256,192,37341,1,0,0:0:0:0:
256,192,37424,1,2,0:0:0:0:
256,192,37507,1,2,0:0:0:0:
256,192,37674,1,0,0:0:0:0:
256,192,37841,1,0,0:0:0:0:
256,192,37924,1,0,0:0:0:0:
256,192,38007,1,2,0:0:0:0:
256,192,38174,1,0,0:0:0:0:
256,192,38341,1,0,0:0:0:0:
256,192,38424,1,0,0:0:0:0:
256,192,38507,1,0,0:0:0:0:
256,192,38674,1,2,0:0:0:0:
256,192,39007,1,0,0:0:0:0:
256,192,39091,1,0,0:0:0:0:
256,192,39174,1,0,0:0:0:0:
256,192,39341,1,2,0:0:0:0:
256,192,39507,1,0,0:0:0:0:
256,192,39591,1,0,0:0:0:0:
256,192,39674,1,0,0:0:0:0:
256,192,39841,1,2,0:0:0:0:
256,192,40007,1,0,0:0:0:0:
256,192,40091,1,2,0:0:0:0:
256,192,40174,1,2,0:0:0:0:
256,192,40341,1,0,0:0:0:0:
256,192,40675,1,0,0:0:0:0:
256,192,41008,1,2,0:0:0:0:
256,192,41175,1,0,0:0:0:0:
256,192,41508,1,2,0:0:0:0:
256,192,41675,1,0,0:0:0:0:
256,192,41841,1,0,0:0:0:0:
256,192,42008,1,2,0:0:0:0:
256,192,42175,1,0,0:0:0:0:
256,192,42341,1,0,0:0:0:0:
256,192,42508,1,2,0:0:0:0:
256,192,42675,1,0,0:0:0:0:
256,192,42758,1,0,0:0:0:0:
256,192,42841,1,2,0:0:0:0:
256,192,43008,1,2,0:0:0:0:
256,192,43175,1,0,0:0:0:0:
256,192,43341,1,0,0:0:0:0:
256,192,43508,1,2,0:0:0:0:
256,192,43675,1,0,0:0:0:0:
256,192,43841,1,0,0:0:0:0:
256,192,44008,1,2,0:0:0:0:
256,192,44175,1,0,0:0:0:0:
256,192,44341,1,0,0:0:0:0:
256,192,44508,1,0,0:0:0:0:
256,192,44675,1,0,0:0:0:0:
256,192,44841,1,2,0:0:0:0:
256,192,45008,1,0,0:0:0:0:
256,192,45175,1,0,0:0:0:0:
256,192,45341,1,2,0:0:0:0:
256,192,45508,1,2,0:0:0:0:
256,192,45675,1,2,0:0:0:0:
256,192,45841,1,0,0:0:0:0:
256,192,46008,1,0,0:0:0:0:
256,192,46175,1,2,0:0:0:0:
256,192,46341,1,0,0:0:0:0:
256,192,46508,1,0,0:0:0:0:
256,192,46675,1,2,0:0:0:0:
256,192,46841,1,0,0:0:0:0:
256,192,47008,1,2,0:0:0:0:
256,192,47175,1,0,0:0:0:0:
256,192,47341,1,0,0:0:0:0:
256,192,47508,1,2,0:0:0:0:
256,192,47675,1,0,0:0:0:0:
256,192,47841,1,0,0:0:0:0:
256,192,48008,1,2,0:0:0:0:
256,192,48175,1,2,0:0:0:0:
256,192,48341,1,0,0:0:0:0:
256,192,48508,1,2,0:0:0:0:
256,192,48675,1,2,0:0:0:0:
256,192,48841,1,0,0:0:0:0:
256,192,49008,1,2,0:0:0:0:
256,192,49175,1,0,0:0:0:0:
256,192,49341,1,0,0:0:0:0:
256,192,49508,1,2,0:0:0:0:
256,192,49675,1,2,0:0:0:0:
256,192,49841,1,0,0:0:0:0:
256,192,50008,1,2,0:0:0:0:
256,192,50175,1,0,0:0:0:0:
256,192,50341,1,0,0:0:0:0:
256,192,50508,1,0,0:0:0:0:
256,192,50675,1,2,0:0:0:0:
256,192,50841,1,0,0:0:0:0:
256,192,51008,1,2,0:0:0:0:
256,192,51175,1,2,0:0:0:0:
256,192,51341,1,0,0:0:0:0:
256,192,51508,1,2,0:0:0:0:
256,192,51675,1,0,0:0:0:0:
256,192,51841,1,0,0:0:0:0:
256,192,52008,1,2,0:0:0:0:
256,192,52175,1,0,0:0:0:0:
256,192,52341,1,2,0:0:0:0:
256,192,52508,1,2,0:0:0:0:
256,192,52591,1,0,0:0:0:0:
256,192,52675,1,2,0:0:0:0:
256,192,52758,1,0,0:0:0:0:
256,192,52841,1,2,0:0:0:0:
256,192,52925,1,0,0:0:0:0:
256,192,53008,1,2,0:0:0:0:
256,192,53091,1,0,0:0:0:0:
256,192,53175,1,2,0:0:0:0:
256,192,53258,1,0,0:0:0:0:
256,192,53341,1,2,0:0:0:0:
256,192,53425,1,0,0:0:0:0:
256,192,53508,1,2,0:0:0:0:
256,192,53591,1,0,0:0:0:0:
256,192,53675,1,2,0:0:0:0:
256,192,53925,1,2,0:0:0:0:
256,192,54175,1,0,0:0:0:0:
256,192,54341,1,2,0:0:0:0:
256,192,54425,1,2,0:0:0:0:
256,192,54508,1,0,0:0:0:0:
256,192,54675,1,0,0:0:0:0:
256,192,54841,1,2,0:0:0:0:
256,192,55008,1,0,0:0:0:0:
256,192,55175,1,0,0:0:0:0:
256,192,55258,1,0,0:0:0:0:
256,192,55341,1,2,0:0:0:0:
256,192,55508,1,0,0:0:0:0:
256,192,55675,1,2,0:0:0:0:
256,192,55758,1,0,0:0:0:0:
256,192,55841,1,0,0:0:0:0:
256,192,56008,1,0,0:0:0:0:
256,192,56175,1,2,0:0:0:0:
256,192,56341,1,2,0:0:0:0:
256,192,56508,1,0,0:0:0:0:
256,192,56675,1,0,0:0:0:0:
256,192,56841,1,2,0:0:0:0:
256,192,57008,1,0,0:0:0:0:
256,192,57175,1,0,0:0:0:0:
256,192,57341,1,2,0:0:0:0:
256,192,57508,1,0,0:0:0:0:
256,192,57675,1,0,0:0:0:0:
256,192,57841,1,0,0:0:0:0:
256,192,57925,1,0,0:0:0:0:
256,192,58008,1,2,0:0:0:0:
256,192,58175,1,2,0:0:0:0:
256,192,58341,1,2,0:0:0:0:
256,192,58425,1,0,0:0:0:0:
256,192,58508,1,0,0:0:0:0:
256,192,58675,1,2,0:0:0:0:
256,192,58841,1,0,0:0:0:0:
256,192,59008,1,0,0:0:0:0:
256,192,59175,1,0,0:0:0:0:
256,192,59258,1,0,0:0:0:0:
256,192,59341,1,2,0:0:0:0:
256,192,59508,1,0,0:0:0:0:
256,192,59675,1,2,0:0:0:0:
256,192,59758,1,2,0:0:0:0:
256,192,59841,1,0,0:0:0:0:
256,192,60008,1,0,0:0:0:0:
256,192,60175,1,2,0:0:0:0:
256,192,60341,1,0,0:0:0:0:
256,192,60508,1,0,0:0:0:0:
256,192,60591,1,0,0:0:0:0:
256,192,60675,1,2,0:0:0:0:
256,192,60841,1,0,0:0:0:0:
256,192,61008,1,2,0:0:0:0:
256,192,61091,1,2,0:0:0:0:
256,192,61175,1,0,0:0:0:0:
256,192,61341,1,2,0:0:0:0:
256,192,61508,1,2,0:0:0:0:
256,192,61675,1,0,0:0:0:0:
256,192,61841,1,0,0:0:0:0:
256,192,62175,1,0,0:0:0:0:
256,192,62341,1,0,0:0:0:0:
256,192,62675,1,6,0:0:0:0:
256,192,62841,1,0,0:0:0:0:
256,192,63008,1,4,0:0:0:0:
256,192,63508,1,4,0:0:0:0:
256,192,64008,1,0,0:0:0:0:
256,192,64175,1,2,0:0:0:0:
256,192,64341,1,0,0:0:0:0:
256,192,64591,1,0,0:0:0:0:
256,192,64841,1,0,0:0:0:0:
256,192,64925,1,0,0:0:0:0:
256,192,65008,1,0,0:0:0:0:
256,192,65175,1,0,0:0:0:0:
256,192,65341,1,0,0:0:0:0:
256,192,65425,1,2,0:0:0:0:
256,192,65508,1,2,0:0:0:0:
256,192,65675,1,2,0:0:0:0:
256,192,65841,1,2,0:0:0:0:
256,192,66008,1,0,0:0:0:0:
256,192,66175,1,2,0:0:0:0:
256,192,66258,1,2,0:0:0:0:
256,192,66341,1,0,0:0:0:0:
256,192,66508,1,0,0:0:0:0:
256,192,66675,1,0,0:0:0:0:
256,192,66758,1,0,0:0:0:0:
256,192,66841,1,2,0:0:0:0:
256,192,67008,1,0,0:0:0:0:
256,192,67175,1,0,0:0:0:0:
256,192,67508,1,0,0:0:0:0:
256,192,67675,1,0,0:0:0:0:
256,192,67758,1,0,0:0:0:0:
256,192,67841,1,0,0:0:0:0:
256,192,68008,1,2,0:0:0:0:
256,192,68175,1,2,0:0:0:0:
256,192,68258,1,0,0:0:0:0:
256,192,68341,1,0,0:0:0:0:
256,192,68508,1,0,0:0:0:0:
256,192,68675,1,0,0:0:0:0:
256,192,68758,1,0,0:0:0:0:
256,192,68841,1,2,0:0:0:0:
256,192,69008,1,2,0:0:0:0:
256,192,69175,1,0,0:0:0:0:
256,192,69258,1,0,0:0:0:0:
256,192,69341,1,2,0:0:0:0:
256,192,69425,1,0,0:0:0:0:
256,192,69508,1,0,0:0:0:0:
256,192,69675,1,0,0:0:0:0:
256,192,69841,1,0,0:0:0:0:
256,192,70175,1,2,0:0:0:0:
256,192,70258,1,0,0:0:0:0:
256,192,70341,1,2,0:0:0:0:
256,192,70508,1,0,0:0:0:0:
256,192,70675,1,2,0:0:0:0:
256,192,70758,1,0,0:0:0:0:
256,192,70841,1,2,0:0:0:0:
256,192,71008,1,0,0:0:0:0:
256,192,71175,1,0,0:0:0:0:
256,192,71258,1,0,0:0:0:0:
256,192,71341,1,2,0:0:0:0:
256,192,71508,1,2,0:0:0:0:
256,192,71675,1,2,0:0:0:0:
256,192,71758,1,2,0:0:0:0:
256,192,71841,1,2,0:0:0:0:
256,192,71925,1,0,0:0:0:0:
256,192,72008,1,2,0:0:0:0:
256,192,72091,1,0,0:0:0:0:
256,192,72175,1,0,0:0:0:0:
256,192,72341,1,0,0:0:0:0:
256,192,72508,1,0,0:0:0:0:
256,192,72841,1,2,0:0:0:0:
256,192,72925,1,2,0:0:0:0:
256,192,73008,1,0,0:0:0:0:
256,192,73175,1,0,0:0:0:0:
256,192,73341,1,0,0:0:0:0:
256,192,73425,1,0,0:0:0:0:
256,192,73508,1,2,0:0:0:0:
256,192,73675,1,0,0:0:0:0:
256,192,73758,1,0,0:0:0:0:
256,192,73841,1,0,0:0:0:0:
256,192,74008,1,2,0:0:0:0:
256,192,74175,1,0,0:0:0:0:
256,192,74341,1,0,0:0:0:0:
256,192,74508,1,2,0:0:0:0:
256,192,74591,1,0,0:0:0:0:
256,192,74675,1,2,0:0:0:0:
256,192,74758,1,0,0:0:0:0:
256,192,74841,1,2,0:0:0:0:
256,192,74925,1,0,0:0:0:0:
256,192,75008,1,2,0:0:0:0:
256,192,75258,1,2,0:0:0:0:
256,192,75508,1,0,0:0:0:0:
256,192,75675,1,2,0:0:0:0:
256,192,75758,1,2,0:0:0:0:
256,192,75842,1,0,0:0:0:0:
256,192,76008,1,2,0:0:0:0:
256,192,76092,1,2,0:0:0:0:
256,192,76175,1,2,0:0:0:0:
256,192,76342,1,2,0:0:0:0:
256,192,76508,1,2,0:0:0:0:
256,192,76675,1,0,0:0:0:0:
256,192,76842,1,2,0:0:0:0:
256,192,76925,1,2,0:0:0:0:
256,192,77008,1,0,0:0:0:0:
256,192,77175,1,0,0:0:0:0:
256,192,77342,1,0,0:0:0:0:
256,192,77425,1,0,0:0:0:0:
256,192,77508,1,2,0:0:0:0:
256,192,77675,1,0,0:0:0:0:
256,192,77842,1,0,0:0:0:0:
256,192,78175,1,0,0:0:0:0:
256,192,78342,1,0,0:0:0:0:
256,192,78425,1,0,0:0:0:0:
256,192,78508,1,0,0:0:0:0:
256,192,78675,1,2,0:0:0:0:
256,192,78842,1,2,0:0:0:0:
256,192,78925,1,0,0:0:0:0:
256,192,79008,1,0,0:0:0:0:
256,192,79175,1,0,0:0:0:0:
256,192,79342,1,0,0:0:0:0:
256,192,79425,1,0,0:0:0:0:
256,192,79508,1,2,0:0:0:0:
256,192,79675,1,2,0:0:0:0:
256,192,79842,1,2,0:0:0:0:
256,192,79925,1,0,0:0:0:0:
256,192,80008,1,2,0:0:0:0:
256,192,80092,1,0,0:0:0:0:
256,192,80175,1,0,0:0:0:0:
256,192,80342,1,0,0:0:0:0:
256,192,80508,1,0,0:0:0:0:
256,192,80842,1,2,0:0:0:0:
256,192,80925,1,0,0:0:0:0:
256,192,81008,1,2,0:0:0:0:
256,192,81175,1,0,0:0:0:0:
256,192,81342,1,2,0:0:0:0:
256,192,81425,1,0,0:0:0:0:
256,192,81508,1,2,0:0:0:0:
256,192,81675,1,0,0:0:0:0:
256,192,81842,1,0,0:0:0:0:
256,192,81925,1,0,0:0:0:0:
256,192,82008,1,2,0:0:0:0:
256,192,82175,1,2,0:0:0:0:
256,192,82342,1,2,0:0:0:0:
256,192,82425,1,2,0:0:0:0:
256,192,82508,1,2,0:0:0:0:
256,192,82592,1,0,0:0:0:0:
256,192,82675,1,2,0:0:0:0:
256,192,82758,1,0,0:0:0:0:
256,192,82842,1,0,0:0:0:0:
256,192,83008,1,0,0:0:0:0:
256,192,83175,1,0,0:0:0:0:
256,192,83258,1,0,0:0:0:0:
256,192,83341,1,2,0:0:0:0:
256,192,83508,1,0,0:0:0:0:
256,192,83675,1,2,0:0:0:0:
256,192,83841,1,2,0:0:0:0:
256,192,84008,1,0,0:0:0:0:
256,192,84175,1,2,0:0:0:0:
256,192,84258,1,2,0:0:0:0:
256,192,84341,1,0,0:0:0:0:
256,192,84508,1,2,0:0:0:0:
256,192,84675,1,2,0:0:0:0:
256,192,84841,1,2,0:0:0:0:
256,192,85008,1,2,0:0:0:0:
256,192,85175,1,2,0:0:0:0:
256,192,85341,1,2,0:0:0:0:
256,192,85508,1,2,0:0:0:0:
256,192,85675,1,4,0:0:0:0:
256,192,96341,5,0,0:0:0:0:
256,192,96675,1,0,0:0:0:0:
256,192,97008,1,0,0:0:0:0:
256,192,97175,1,0,0:0:0:0:
256,192,97508,1,0,0:0:0:0:
256,192,97675,1,0,0:0:0:0:
256,192,97841,1,0,0:0:0:0:
256,192,98175,1,0,0:0:0:0:
256,192,98508,1,0,0:0:0:0:
256,192,98675,1,0,0:0:0:0:
256,192,99008,1,0,0:0:0:0:
256,192,99175,1,0,0:0:0:0:
256,192,99341,1,0,0:0:0:0:
256,192,99675,1,0,0:0:0:0:
256,192,99841,1,0,0:0:0:0:
256,192,100175,1,0,0:0:0:0:
256,192,100341,1,0,0:0:0:0:
256,192,100675,1,0,0:0:0:0:
256,192,101008,1,0,0:0:0:0:
256,192,101175,1,0,0:0:0:0:
256,192,101341,1,0,0:0:0:0:
256,192,101508,1,0,0:0:0:0:
256,192,101675,1,0,0:0:0:0:
256,192,102008,1,0,0:0:0:0:
256,192,102341,1,0,0:0:0:0:
256,192,102675,1,0,0:0:0:0:
256,192,103008,1,0,0:0:0:0:
256,192,103341,1,0,0:0:0:0:
256,192,103675,1,0,0:0:0:0:
256,192,104008,1,0,0:0:0:0:
256,192,104341,1,0,0:0:0:0:
256,192,104675,1,0,0:0:0:0:
256,192,105008,1,0,0:0:0:0:
256,192,105341,1,0,0:0:0:0:
256,192,105675,1,0,0:0:0:0:
256,192,106008,1,0,0:0:0:0:
256,192,106341,1,0,0:0:0:0:
256,192,106675,5,2,0:0:0:0:
256,192,106758,1,2,0:0:0:0:
256,192,106841,1,2,0:0:0:0:
256,192,106925,1,2,0:0:0:0:
256,192,107008,1,0,0:0:0:0:
256,192,107175,1,0,0:0:0:0:
256,192,107341,1,2,0:0:0:0:
256,192,107508,1,2,0:0:0:0:
256,192,107591,1,2,0:0:0:0:
256,192,107675,1,0,0:0:0:0:
256,192,107841,1,0,0:0:0:0:
256,192,107925,1,0,0:0:0:0:
256,192,108008,1,2,0:0:0:0:
256,192,108175,1,0,0:0:0:0:
256,192,108341,1,0,0:0:0:0:
256,192,108508,1,0,0:0:0:0:
256,192,108675,1,2,0:0:0:0:
256,192,108841,1,2,0:0:0:0:
256,192,108925,1,2,0:0:0:0:
256,192,109008,1,0,0:0:0:0:
256,192,109175,1,0,0:0:0:0:
256,192,109258,1,0,0:0:0:0:
256,192,109341,1,2,0:0:0:0:
256,192,109425,1,2,0:0:0:0:
256,192,109508,1,0,0:0:0:0:
256,192,109675,1,0,0:0:0:0:
256,192,109841,1,0,0:0:0:0:
256,192,110008,1,2,0:0:0:0:
256,192,110175,1,2,0:0:0:0:
256,192,110341,1,0,0:0:0:0:
256,192,110508,1,2,0:0:0:0:
256,192,110591,1,2,0:0:0:0:
256,192,110675,1,0,0:0:0:0:
256,192,110841,1,2,0:0:0:0:
256,192,111008,1,0,0:0:0:0:
256,192,111175,1,0,0:0:0:0:
256,192,111341,1,2,0:0:0:0:
256,192,111425,1,0,0:0:0:0:
256,192,111508,1,2,0:0:0:0:
256,192,111675,1,0,0:0:0:0:
256,192,111841,1,2,0:0:0:0:
256,192,111925,1,0,0:0:0:0:
256,192,112008,1,2,0:0:0:0:
256,192,112091,1,2,0:0:0:0:
256,192,112175,1,2,0:0:0:0:
256,192,112258,1,2,0:0:0:0:
256,192,112341,1,2,0:0:0:0:
256,192,112425,1,0,0:0:0:0:
256,192,112508,1,0,0:0:0:0:
256,192,112675,1,0,0:0:0:0:
256,192,112841,1,2,0:0:0:0:
256,192,113008,1,0,0:0:0:0:
256,192,113175,1,2,0:0:0:0:
256,192,113258,1,2,0:0:0:0:
256,192,113341,1,0,0:0:0:0:
256,192,113508,1,0,0:0:0:0:
256,192,113675,1,2,0:0:0:0:
256,192,113758,1,0,0:0:0:0:
256,192,113841,1,0,0:0:0:0:
256,192,114008,1,0,0:0:0:0:
256,192,114175,1,2,0:0:0:0:
256,192,114341,1,0,0:0:0:0:
256,192,114508,1,2,0:0:0:0:
256,192,114591,1,0,0:0:0:0:
256,192,114675,1,0,0:0:0:0:
256,192,114758,1,0,0:0:0:0:
256,192,114841,1,2,0:0:0:0:
256,192,115008,1,2,0:0:0:0:
256,192,115175,1,0,0:0:0:0:
256,192,115341,1,2,0:0:0:0:
256,192,115425,1,2,0:0:0:0:
256,192,115508,1,0,0:0:0:0:
256,192,115675,1,0,0:0:0:0:
256,192,115841,1,2,0:0:0:0:
256,192,115925,1,2,0:0:0:0:
256,192,116008,1,0,0:0:0:0:
256,192,116175,1,0,0:0:0:0:
256,192,116341,1,2,0:0:0:0:
256,192,116508,1,0,0:0:0:0:
256,192,116675,1,0,0:0:0:0:
256,192,116758,1,2,0:0:0:0:
256,192,116841,1,2,0:0:0:0:
256,192,116925,1,2,0:0:0:0:
256,192,117008,1,0,0:0:0:0:
256,192,117091,1,2,0:0:0:0:
256,192,117175,1,2,0:0:0:0:
256,192,117258,1,2,0:0:0:0:
256,192,117341,1,0,0:0:0:0:
256,192,117425,1,2,0:0:0:0:
256,192,117508,1,2,0:0:0:0:
256,192,117591,1,0,0:0:0:0:
256,192,117675,1,2,0:0:0:0:
256,192,117841,1,2,0:0:0:0:
256,192,117925,1,0,0:0:0:0:
256,192,118008,1,0,0:0:0:0:
256,192,118175,1,2,0:0:0:0:
256,192,118258,1,0,0:0:0:0:
256,192,118341,1,0,0:0:0:0:
256,192,118508,1,2,0:0:0:0:
256,192,118591,1,0,0:0:0:0:
256,192,118675,1,0,0:0:0:0:
256,192,118758,1,0,0:0:0:0:
256,192,118841,1,2,0:0:0:0:
256,192,118925,1,0,0:0:0:0:
256,192,119008,1,0,0:0:0:0:
256,192,119175,1,2,0:0:0:0:
256,192,119258,1,0,0:0:0:0:
256,192,119425,1,2,0:0:0:0:
256,192,119508,1,0,0:0:0:0:
256,192,119675,1,0,0:0:0:0:
256,192,119841,1,2,0:0:0:0:
256,192,119925,1,0,0:0:0:0:
256,192,120008,1,2,0:0:0:0:
256,192,120091,1,0,0:0:0:0:
256,192,120175,1,2,0:0:0:0:
256,192,120258,1,2,0:0:0:0:
256,192,120341,1,0,0:0:0:0:
256,192,120508,1,2,0:0:0:0:
256,192,120675,1,0,0:0:0:0:
256,192,120758,1,0,0:0:0:0:
256,192,120841,1,2,0:0:0:0:
256,192,121008,1,0,0:0:0:0:
256,192,121175,1,2,0:0:0:0:
256,192,121258,1,2,0:0:0:0:
256,192,121341,1,0,0:0:0:0:
256,192,121508,1,2,0:0:0:0:
256,192,121675,1,0,0:0:0:0:
256,192,121841,1,2,0:0:0:0:
256,192,121925,1,0,0:0:0:0:
256,192,122008,1,2,0:0:0:0:
256,192,122175,1,2,0:0:0:0:
256,192,122341,1,0,0:0:0:0:
256,192,122425,1,0,0:0:0:0:
256,192,122508,1,2,0:0:0:0:
256,192,122675,1,2,0:0:0:0:
256,192,122758,1,2,0:0:0:0:
256,192,122841,1,2,0:0:0:0:
256,192,122925,1,2,0:0:0:0:
256,192,123008,1,0,0:0:0:0:
256,192,123175,1,0,0:0:0:0:
256,192,123341,1,2,0:0:0:0:
256,192,123508,1,0,0:0:0:0:
256,192,123591,1,2,0:0:0:0:
256,192,123675,1,0,0:0:0:0:
256,192,123841,1,0,0:0:0:0:
256,192,123925,1,0,0:0:0:0:
256,192,124008,1,2,0:0:0:0:
256,192,124091,1,0,0:0:0:0:
256,192,124175,1,2,0:0:0:0:
256,192,124258,1,2,0:0:0:0:
256,192,124341,1,2,0:0:0:0:
256,192,124508,1,2,0:0:0:0:
256,192,124591,1,2,0:0:0:0:
256,192,124675,1,0,0:0:0:0:
256,192,124841,1,2,0:0:0:0:
256,192,124925,1,2,0:0:0:0:
256,192,125008,1,0,0:0:0:0:
256,192,125175,1,2,0:0:0:0:
256,192,125258,1,0,0:0:0:0:
256,192,125341,1,0,0:0:0:0:
256,192,125425,1,0,0:0:0:0:
256,192,125508,1,2,0:0:0:0:
256,192,125675,1,0,0:0:0:0:
256,192,125758,1,0,0:0:0:0:
256,192,125841,1,0,0:0:0:0:
256,192,126008,1,2,0:0:0:0:
256,192,126175,1,2,0:0:0:0:
256,192,126341,1,0,0:0:0:0:
256,192,126425,1,0,0:0:0:0:
256,192,126508,1,2,0:0:0:0:
256,192,126675,1,0,0:0:0:0:
256,192,126758,1,0,0:0:0:0:
256,192,126841,1,0,0:0:0:0:
256,192,127008,1,2,0:0:0:0:
256,192,127091,1,0,0:0:0:0:
256,192,127175,1,0,0:0:0:0:
256,192,127258,1,0,0:0:0:0:
256,192,127341,1,2,0:0:0:0:
256,192,127425,1,0,0:0:0:0:
256,192,127508,1,0,0:0:0:0:
256,192,127591,1,0,0:0:0:0:
256,192,127675,1,2,0:0:0:0:
256,192,127758,1,0,0:0:0:0:
256,192,127841,1,2,0:0:0:0:
256,192,127925,1,0,0:0:0:0:
256,192,128008,1,2,0:0:0:0:
256,192,128341,1,4,0:0:0:0:
256,192,128508,1,0,0:0:0:0:
256,192,128675,1,2,0:0:0:0:
256,192,128841,1,0,0:0:0:0:
256,192,128925,1,0,0:0:0:0:
256,192,129008,1,2,0:0:0:0:
256,192,129175,1,0,0:0:0:0:
256,192,129341,1,2,0:0:0:0:
256,192,129508,1,0,0:0:0:0:
256,192,129591,1,0,0:0:0:0:
256,192,129675,1,0,0:0:0:0:
256,192,129841,1,0,0:0:0:0:
256,192,130008,1,2,0:0:0:0:
256,192,130175,1,0,0:0:0:0:
256,192,130341,1,0,0:0:0:0:
256,192,130425,1,2,0:0:0:0:
256,192,130508,1,0,0:0:0:0:
256,192,130675,1,2,0:0:0:0:
256,192,130841,1,0,0:0:0:0:
256,192,131008,1,0,0:0:0:0:
256,192,131175,1,0,0:0:0:0:
256,192,131341,1,2,0:0:0:0:
256,192,131508,1,2,0:0:0:0:
256,192,131591,1,2,0:0:0:0:
256,192,131675,1,0,0:0:0:0:
256,192,131841,1,0,0:0:0:0:
256,192,131925,1,0,0:0:0:0:
256,192,132008,1,2,0:0:0:0:
256,192,132175,1,0,0:0:0:0:
256,192,132341,1,2,0:0:0:0:
256,192,132508,1,0,0:0:0:0:
256,192,132675,1,0,0:0:0:0:
256,192,132841,1,2,0:0:0:0:
256,192,133008,1,0,0:0:0:0:
256,192,133175,1,0,0:0:0:0:
256,192,133258,1,0,0:0:0:0:
256,192,133341,1,2,0:0:0:0:
256,192,133425,1,0,0:0:0:0:
256,192,133508,1,0,0:0:0:0:
256,192,133675,1,2,0:0:0:0:
256,192,133841,1,2,0:0:0:0:
256,192,134008,1,0,0:0:0:0:
256,192,134175,1,2,0:0:0:0:
256,192,134258,1,0,0:0:0:0:
256,192,134341,1,0,0:0:0:0:
256,192,134508,1,0,0:0:0:0:
256,192,134591,1,0,0:0:0:0:
256,192,134675,1,2,0:0:0:0:
256,192,134841,1,2,0:0:0:0:
256,192,135008,1,0,0:0:0:0:
256,192,135175,1,2,0:0:0:0:
256,192,135341,1,2,0:0:0:0:
256,192,135425,1,2,0:0:0:0:
256,192,135508,1,0,0:0:0:0:
256,192,135675,1,2,0:0:0:0:
256,192,135841,1,0,0:0:0:0:
256,192,135925,1,2,0:0:0:0:
256,192,136091,1,0,0:0:0:0:
256,192,136175,1,2,0:0:0:0:
256,192,136341,1,0,0:0:0:0:
256,192,136508,1,2,0:0:0:0:
256,192,136591,1,0,0:0:0:0:
256,192,136675,1,2,0:0:0:0:
256,192,136841,1,2,0:0:0:0:
256,192,137008,1,0,0:0:0:0:
256,192,137175,1,0,0:0:0:0:
256,192,137258,1,0,0:0:0:0:
256,192,137341,1,2,0:0:0:0:
256,192,137508,1,0,0:0:0:0:
256,192,137675,1,2,0:0:0:0:
256,192,137841,1,0,0:0:0:0:
256,192,137925,1,0,0:0:0:0:
256,192,138008,1,2,0:0:0:0:
256,192,138175,1,0,0:0:0:0:
256,192,138258,1,2,0:0:0:0:
256,192,138341,1,0,0:0:0:0:
256,192,138425,1,0,0:0:0:0:
256,192,138508,1,2,0:0:0:0:
256,192,138591,1,0,0:0:0:0:
256,192,138675,1,2,0:0:0:0:
256,192,138758,1,0,0:0:0:0:
256,192,138841,1,0,0:0:0:0:
256,192,139008,1,4,0:0:0:0:
256,192,139341,1,0,0:0:0:0:
256,192,139508,1,2,0:0:0:0:
256,192,139674,1,0,0:0:0:0:
256,192,139758,1,0,0:0:0:0:
256,192,139841,1,2,0:0:0:0:
256,192,140008,1,0,0:0:0:0:
256,192,140175,1,2,0:0:0:0:
256,192,140342,1,0,0:0:0:0:
256,192,140425,1,0,0:0:0:0:
256,192,140508,1,0,0:0:0:0:
256,192,140675,1,2,0:0:0:0:
256,192,140842,1,0,0:0:0:0:
256,192,141008,1,0,0:0:0:0:
256,192,141092,1,2,0:0:0:0:
256,192,141175,1,0,0:0:0:0:
256,192,141342,1,2,0:0:0:0:
256,192,141508,1,0,0:0:0:0:
256,192,141675,1,0,0:0:0:0:
256,192,141842,1,0,0:0:0:0:
256,192,142008,1,2,0:0:0:0:
256,192,142175,1,2,0:0:0:0:
256,192,142258,1,2,0:0:0:0:
256,192,142342,1,0,0:0:0:0:
256,192,142508,1,0,0:0:0:0:
256,192,142592,1,0,0:0:0:0:
256,192,142675,1,2,0:0:0:0:
256,192,142842,1,0,0:0:0:0:
256,192,143008,1,2,0:0:0:0:
256,192,143175,1,0,0:0:0:0:
256,192,143342,1,0,0:0:0:0:
256,192,143508,1,2,0:0:0:0:
256,192,143675,1,0,0:0:0:0:
256,192,143842,1,0,0:0:0:0:
256,192,143925,1,0,0:0:0:0:
256,192,144008,1,2,0:0:0:0:
256,192,144092,1,0,0:0:0:0:
256,192,144175,1,0,0:0:0:0:
256,192,144342,1,2,0:0:0:0:
256,192,144508,1,2,0:0:0:0:
256,192,144675,1,0,0:0:0:0:
256,192,144842,1,2,0:0:0:0:
256,192,144925,1,0,0:0:0:0:
256,192,145008,1,0,0:0:0:0:
256,192,145175,1,0,0:0:0:0:
256,192,145258,1,0,0:0:0:0:
256,192,145342,1,2,0:0:0:0:
256,192,145508,1,2,0:0:0:0:
256,192,145675,1,0,0:0:0:0:
256,192,145842,1,2,0:0:0:0:
256,192,146008,1,2,0:0:0:0:
256,192,146092,1,2,0:0:0:0:
256,192,146175,1,0,0:0:0:0:
256,192,146342,1,2,0:0:0:0:
256,192,146508,1,0,0:0:0:0:
256,192,146592,1,2,0:0:0:0:
256,192,146758,1,0,0:0:0:0:
256,192,146842,1,2,0:0:0:0:
256,192,147008,1,0,0:0:0:0:
256,192,147175,1,2,0:0:0:0:
256,192,147258,1,0,0:0:0:0:
256,192,147342,1,2,0:0:0:0:
256,192,147508,1,2,0:0:0:0:
256,192,147675,1,0,0:0:0:0:
256,192,147842,1,0,0:0:0:0:
256,192,147925,1,0,0:0:0:0:
256,192,148008,1,2,0:0:0:0:
256,192,148175,1,0,0:0:0:0:
256,192,148342,1,2,0:0:0:0:
256,192,148508,1,0,0:0:0:0:
256,192,148592,1,0,0:0:0:0:
256,192,148675,1,2,0:0:0:0:
256,192,148842,1,0,0:0:0:0:
256,192,149008,1,0,0:0:0:0:
256,192,149092,1,0,0:0:0:0:
256,192,149175,1,2,0:0:0:0:
256,192,149258,1,0,0:0:0:0:
256,192,149342,1,2,0:0:0:0:
256,192,149425,1,0,0:0:0:0:
256,192,149508,1,2,0:0:0:0:
256,192,149591,1,2,0:0:0:0:
256,192,149675,1,0,0:0:0:0:
256,192,149841,1,0,0:0:0:0:
256,192,149925,1,0,0:0:0:0:
256,192,150008,1,2,0:0:0:0:
256,192,150175,1,0,0:0:0:0:
256,192,150341,1,2,0:0:0:0:
256,192,150425,1,0,0:0:0:0:
256,192,150508,1,0,0:0:0:0:
256,192,150591,1,0,0:0:0:0:
256,192,150675,1,2,0:0:0:0:
256,192,150841,1,0,0:0:0:0:
256,192,151008,1,0,0:0:0:0:
256,192,151175,1,0,0:0:0:0:
256,192,151258,1,0,0:0:0:0:
256,192,151341,1,2,0:0:0:0:
256,192,151508,1,0,0:0:0:0:
256,192,151675,1,2,0:0:0:0:
256,192,151758,1,2,0:0:0:0:
256,192,151841,1,0,0:0:0:0:
256,192,151925,1,0,0:0:0:0:
256,192,152008,1,2,0:0:0:0:
256,192,152091,1,2,0:0:0:0:
256,192,152175,1,0,0:0:0:0:
256,192,152341,1,0,0:0:0:0:
256,192,152508,1,0,0:0:0:0:
256,192,152591,1,0,0:0:0:0:
256,192,152675,1,2,0:0:0:0:
256,192,152841,1,0,0:0:0:0:
256,192,153008,1,2,0:0:0:0:
256,192,153091,1,0,0:0:0:0:
256,192,153175,1,0,0:0:0:0:
256,192,153258,1,0,0:0:0:0:
256,192,153341,1,2,0:0:0:0:
256,192,153508,1,2,0:0:0:0:
256,192,153675,1,0,0:0:0:0:
256,192,153841,1,2,0:0:0:0:
256,192,154008,1,0,0:0:0:0:
256,192,154175,1,2,0:0:0:0:
256,192,154341,1,0,0:0:0:0:
256,192,154425,1,2,0:0:0:0:
256,192,154508,1,0,0:0:0:0:
256,192,154591,1,0,0:0:0:0:
256,192,154675,1,2,0:0:0:0:
256,192,154758,1,0,0:0:0:0:
256,192,154841,1,0,0:0:0:0:
256,192,155008,1,0,0:0:0:0:
256,192,155175,1,0,0:0:0:0:
256,192,155341,1,2,0:0:0:0:
256,192,155508,1,0,0:0:0:0:
256,192,155591,1,0,0:0:0:0:
256,192,155675,1,2,0:0:0:0:
256,192,155841,1,0,0:0:0:0:
256,192,156008,1,2,0:0:0:0:
256,192,156175,1,0,0:0:0:0:
256,192,156341,1,0,0:0:0:0:
256,192,156425,1,0,0:0:0:0:
256,192,156508,1,0,0:0:0:0:
256,192,156591,1,0,0:0:0:0:
256,192,156675,1,2,0:0:0:0:
256,192,156841,1,2,0:0:0:0:
256,192,157008,1,2,0:0:0:0:
256,192,157091,1,2,0:0:0:0:
256,192,157175,1,0,0:0:0:0:
256,192,157341,1,2,0:0:0:0:
256,192,157425,1,0,0:0:0:0:
256,192,157508,1,0,0:0:0:0:
256,192,157675,1,0,0:0:0:0:
256,192,157841,1,0,0:0:0:0:
256,192,157925,1,0,0:0:0:0:
256,192,158008,1,2,0:0:0:0:
256,192,158175,1,0,0:0:0:0:
256,192,158341,1,2,0:0:0:0:
256,192,158425,1,2,0:0:0:0:
256,192,158508,1,0,0:0:0:0:
256,192,158675,1,0,0:0:0:0:
256,192,158841,1,2,0:0:0:0:
256,192,159008,1,0,0:0:0:0:
256,192,159175,1,2,0:0:0:0:
256,192,159258,1,2,0:0:0:0:
256,192,159341,1,0,0:0:0:0:
256,192,159508,1,2,0:0:0:0:
256,192,159591,1,0,0:0:0:0:
256,192,159675,1,2,0:0:0:0:
256,192,159841,1,2,0:0:0:0:
256,192,160008,1,2,0:0:0:0:
256,192,160091,1,2,0:0:0:0:
256,192,160175,1,2,0:0:0:0:
256,192,160258,1,2,0:0:0:0:
256,192,160341,1,0,0:0:0:0:
256,192,160508,1,0,0:0:0:0:
256,192,160675,1,2,0:0:0:0:
256,192,160758,1,0,0:0:0:0:
256,192,160841,1,0,0:0:0:0:
256,192,160925,1,0,0:0:0:0:
256,192,161008,1,2,0:0:0:0:
256,192,161175,1,0,0:0:0:0:
256,192,161341,1,2,0:0:0:0:
256,192,161508,1,2,0:0:0:0:
256,192,161675,1,0,0:0:0:0:
256,192,161841,1,2,0:0:0:0:
256,192,161925,1,0,0:0:0:0:
256,192,162008,1,2,0:0:0:0:
256,192,162175,1,2,0:0:0:0:
256,192,162341,1,2,0:0:0:0:
256,192,162425,1,0,0:0:0:0:
256,192,162508,1,0,0:0:0:0:
256,192,162591,1,2,0:0:0:0:
256,192,162675,1,0,0:0:0:0:
256,192,162758,1,2,0:0:0:0:
256,192,162841,1,0,0:0:0:0:
256,192,163008,1,0,0:0:0:0:
256,192,163175,1,0,0:0:0:0:
256,192,163341,1,2,0:0:0:0:
256,192,163508,1,0,0:0:0:0:
256,192,163591,1,2,0:0:0:0:
256,192,163675,1,0,0:0:0:0:
256,192,163841,1,0,0:0:0:0:
256,192,163925,1,0,0:0:0:0:
256,192,164008,1,2,0:0:0:0:
256,192,164175,1,0,0:0:0:0:
256,192,164341,1,0,0:0:0:0:
256,192,164508,1,2,0:0:0:0:
256,192,164591,1,0,0:0:0:0:
256,192,164758,1,2,0:0:0:0:
256,192,164841,1,0,0:0:0:0:
256,192,165008,1,0,0:0:0:0:
256,192,165175,1,2,0:0:0:0:
256,192,165258,1,0,0:0:0:0:
256,192,165341,1,2,0:0:0:0:
256,192,165425,1,0,0:0:0:0:
256,192,165508,1,2,0:0:0:0:
256,192,165591,1,2,0:0:0:0:
256,192,165675,1,0,0:0:0:0:
256,192,165841,1,0,0:0:0:0:
256,192,166008,1,2,0:0:0:0:
256,192,166175,1,0,0:0:0:0:
256,192,166258,1,0,0:0:0:0:
256,192,166341,1,2,0:0:0:0:
256,192,166508,1,0,0:0:0:0:
256,192,166675,1,0,0:0:0:0:
256,192,166841,1,2,0:0:0:0:
256,192,167008,1,0,0:0:0:0:
256,192,167175,1,0,0:0:0:0:
256,192,167258,1,0,0:0:0:0:
256,192,167341,1,2,0:0:0:0:
256,192,167508,1,0,0:0:0:0:
256,192,167675,1,2,0:0:0:0:
256,192,167758,1,2,0:0:0:0:
256,192,167841,1,0,0:0:0:0:
256,192,168008,1,0,0:0:0:0:
256,192,168175,1,2,0:0:0:0:
256,192,168258,1,0,0:0:0:0:
256,192,168341,1,2,0:0:0:0:
256,192,168508,1,2,0:0:0:0:
256,192,168675,1,0,0:0:0:0:
256,192,168841,1,2,0:0:0:0:
256,192,169008,1,0,0:0:0:0:
256,192,169175,1,0,0:0:0:0:
256,192,169258,1,0,0:0:0:0:
256,192,169341,1,2,0:0:0:0:
256,192,169508,1,2,0:0:0:0:
256,192,169675,1,0,0:0:0:0:
256,192,169841,1,2,0:0:0:0:
256,192,169925,1,0,0:0:0:0:
256,192,170008,1,2,0:0:0:0:
256,192,170175,1,2,0:0:0:0:
256,192,170341,1,2,0:0:0:0:
256,192,170425,1,0,0:0:0:0:
256,192,170508,1,0,0:0:0:0:
256,192,170591,1,0,0:0:0:0:
256,192,170675,1,2,0:0:0:0:
256,192,170758,1,0,0:0:0:0:
256,192,170841,1,0,0:0:0:0:
256,192,170925,1,2,0:0:0:0:
256,192,171008,1,0,0:0:0:0:
