osu file format v14

[General]
AudioFilename: 06 perthed again (yambabom remix).mp3
AudioLeadIn: 0
PreviewTime: 106997
Countdown: 0
SampleSet: Normal
StackLeniency: 0.7
Mode: 0
LetterboxInBreaks: 0
WidescreenStoryboard: 0

[Editor]
Bookmarks: 331,42997,85664,96330,138664,149664
DistanceSpacing: 1.3
BeatDivisor: 4
GridSize: 4
TimelineZoom: 1.4

[Metadata]
Title:perthed again (yambabom remix)
TitleUnicode:perthed again (yambabom remix)
Artist:Hitori Tori
ArtistUnicode:Hitori Tori
Creator:Asphyxia
Version:Hard
Source:
Tags:breakcore collab collaboration Zapy ktgster Frey Irreversible Aka
BeatmapID:670838
BeatmapSetID:268693

[Difficulty]
HPDrainRate:6
CircleSize:4
OverallDifficulty:7
ApproachRate:8
SliderMultiplier:1.3
SliderTickRate:2

[Events]
//Background and Video events
0,0,"uh.png",0,0
//Break Periods
2,85875,95591
//Storyboard Layer 0 (Background)
//Storyboard Layer 1 (Fail)
//Storyboard Layer 2 (Pass)
//Storyboard Layer 3 (Foreground)
//Storyboard Sound Samples

[TimingPoints]
342,333.333333333333,4,1,0,50,1,0
11008,-100,4,1,0,60,0,0
21675,-100,4,1,0,70,0,0
32675,-100,4,1,0,70,0,1
32758,-100,4,1,0,70,0,0
43008,-100,4,1,0,50,0,0
52925,-100,4,1,0,20,0,0
53008,-100,4,1,0,50,0,0
53091,-100,4,1,0,20,0,0
53175,-100,4,1,0,50,0,0
53258,-100,4,1,0,20,0,0
53341,-100,4,1,0,50,0,0
53425,-100,4,1,0,20,0,0
53508,-100,4,1,0,50,0,0
64341,-100,4,1,0,60,0,0
64841,-100,4,1,1,60,0,0
74258,-100,4,1,0,20,0,0
74341,-100,4,1,0,60,0,0
74425,-100,4,1,0,20,0,0
74508,-100,4,1,0,60,0,0
74591,-100,4,1,0,20,0,0
74675,-100,4,1,0,60,0,0
74758,-100,4,1,0,20,0,0
74841,-100,4,1,0,60,0,0
74925,-100,4,1,0,20,0,0
75008,-100,4,1,1,60,0,0
81508,-100,4,1,0,60,0,0
82008,-100,4,1,1,60,0,0
85675,-100,4,2,0,70,0,0
107008,-100,4,2,0,80,0,1
107091,-100,4,2,0,80,0,0
117675,-100,4,2,0,80,0,1
117758,-100,4,2,0,80,0,0
127675,-100,4,2,0,80,0,0
128008,-100,4,2,0,90,0,0
128341,-100,4,1,0,80,0,1
139008,-100,4,1,0,60,0,0
139341,-100,4,1,0,80,0,1
149341,-100,4,1,0,80,0,1
149591,-100,4,1,0,60,0,0
149675,-100,4,1,0,85,0,1
170341,-100,4,1,0,90,0,1
170675,-100,4,1,0,90,0,1
171008,-100,4,1,0,80,0,0

[Colours]
Combo1 : 255,0,0
Combo2 : 255,128,64

[HitObjects]
197,269,342,5,4,0:0:0:0:
255,320,508,2,0,L|397:307,1,130,0|0,0:0|0:0,0:0:0:0:
400,231,1008,2,0,L|270:242,1,130,0|0,0:0|0:0,0:0:0:0:
212,189,1508,1,2,0:0:0:0:
243,117,1675,6,0,P|253:75|212:-5,1,130
140,11,2175,2,0,P|130:53|171:133,1,130,0|0,0:0|0:0,0:0:0:0:
212,189,2675,2,0,L|185:258,1,65,2|2,0:0|0:0,0:0:0:0:
145,315,3008,5,0,0:0:0:0:
222,325,3175,2,0,P|260:310|354:328,1,130,0|0,0:0|0:0,0:0:0:0:
413,361,3675,2,0,P|376:307|372:243,1,130,0|0,0:0|0:0,0:0:0:0:
409,175,4175,1,2,0:0:0:0:
331,175,4341,6,0,P|268:172|207:121,1,130,0|0,0:0|0:0,0:0:0:0:
158,80,4841,2,0,L|187:221,1,130
206,282,5341,2,0,L|190:355,1,65,2|2,0:0|0:0,0:0:0:0:
127,300,5675,5,2,0:0:0:0:
147,225,5841,2,0,P|200:202|272:233,1,130
298,296,6341,2,0,P|352:320|420:287,1,130
356,242,6841,1,2,0:0:0:0:
282,221,7008,6,0,L|267:357,1,130,0|0,0:0|0:0,0:0:0:0:
201,308,7508,2,0,L|215:178,1,130,0|0,0:0|0:0,0:0:0:0:
279,134,8008,2,0,P|250:107|218:101,1,65,2|2,0:0|0:0,0:0:0:0:
151,124,8341,5,0,0:0:0:0:
108,189,8508,2,0,P|75:136|101:62,1,130,0|0,0:0|0:0,0:0:0:0:
162,42,9008,2,0,L|294:56,1,130,0|0,0:0|0:0,0:0:0:0:
368,65,9508,1,2,0:0:0:0:
319,126,9675,6,0,L|247:147,1,65,4|0,0:0|0:0,0:0:0:0:
181,166,10008,1,8,0:0:0:0:
294,217,10175,2,0,L|366:238,1,65,4|0,0:0|0:0,0:0:0:0:
431,258,10508,1,8,0:0:0:0:
376,314,10675,2,0,L|386:353,3,32.5,8|0|0|0,0:0|0:0|0:0|0:0,0:0:0:0:
341,345,11008,6,0,L|265:357,1,65,4|0,0:0|0:0,0:0:0:0:
183,283,11341,2,0,L|247:273,1,65,8|0,0:0|0:0,0:0:0:0:
328,247,11675,2,0,P|345:207|334:120,1,130,0|8,0:0|0:0,0:0:0:0:
277,61,12175,1,2,0:0:0:0:
220,122,12341,6,0,L|87:104,1,130,0|8,0:0|0:0,0:0:0:0:
44,175,12841,2,0,L|172:192,1,130,0|0,0:0|0:0,0:0:0:0:
257,201,13341,2,0,L|273:277,1,65,8|2,0:0|0:0,0:0:0:0:
297,345,13675,5,0,0:0:0:0:
358,287,13841,2,0,P|408:262|492:277,1,130,0|0,0:0|0:0,0:0:0:0:
496,353,14341,2,0,P|446:378|362:363,1,130,0|8,0:0|0:0,0:0:0:0:
297,345,14841,1,2,0:0:0:0:
216,319,15008,6,0,L|144:333,1,65,0|0,0:0|0:0,0:0:0:0:
69,345,15341,1,8,0:0:0:0:
91,263,15508,2,0,L|154:250,1,65,0|0,0:0|0:0,0:0:0:0:
235,225,15841,1,0,0:0:0:0:
172,167,16008,2,0,P|149:133|154:90,1,65,8|2,0:0|0:0,0:0:0:0:
232,105,16341,5,0,0:0:0:0:
296,160,16508,2,0,L|365:147,1,65,0|8,0:0|0:0,0:0:0:0:
440,121,16841,1,0,0:0:0:0:
422,203,17008,2,0,P|408:260|449:324,1,130,0|8,0:0|0:0,0:0:0:0:
497,250,17508,1,2,0:0:0:0:
422,203,17675,6,0,L|295:231,1,130,0|8,0:0|0:0,0:0:0:0:
215,259,18175,1,0,0:0:0:0:
184,180,18341,2,0,P|200:143|194:105,1,65,0|0,0:0|0:0,0:0:0:0:
152,47,18675,1,8,0:0:0:0:
152,47,18841,1,2,0:0:0:0:
236,45,19008,6,0,L|313:30,1,65,0|0,0:0|0:0,0:0:0:0:
415,85,19341,2,0,L|351:97,1,65,8|0,0:0|0:0,0:0:0:0:
296,162,19675,2,0,P|291:195|357:268,1,130,0|8,0:0|0:0,0:0:0:0:
430,282,20175,1,2,0:0:0:0:
430,282,20258,1,0,0:0:0:0:
430,282,20341,6,0,L|452:365,1,65,4|0,0:0|0:0,0:0:0:0:
487,214,20675,1,2,0:0:0:0:
404,199,20841,2,0,P|365:223|351:264,1,65,4|0,0:0|0:0,0:0:0:0:
336,321,21175,1,2,0:0:0:0:
256,292,21341,2,0,L|172:281,1,65,8|0,0:0|0:0,0:0:0:0:
111,253,21675,6,0,L|242:220,1,130,4|8,0:0|0:0,0:0:0:0:
215,139,22175,2,0,L|166:154,2,32.5,0|0|0,0:0|0:0|0:0,0:0:0:0:
294,109,22508,1,2,0:0:0:0:
227,56,22675,2,0,L|157:74,1,65,8|0,0:0|0:0,0:0:0:0:
99,131,23008,6,0,P|78:72|105:8,2,130,0|8|0,0:0|0:0|0:0,0:0:0:0:
162,187,23841,1,2,0:0:0:0:
83,218,24008,2,0,L|12:205,1,65,8|0,0:0|0:0,0:0:0:0:
14,290,24341,6,0,L|150:311,1,130,0|8,0:0|0:0,0:0:0:0:
226,321,24841,2,0,L|269:327,2,32.5,0|0|0,0:0|0:0|0:0,0:0:0:0:
181,248,25175,1,2,0:0:0:0:
231,180,25341,2,0,P|274:178|309:201,1,65,8|0,0:0|0:0,0:0:0:0:
352,247,25675,6,0,P|324:210|337:117,1,130,0|8,0:0|0:0,0:0:0:0:
412,115,26175,2,0,P|440:152|427:245,1,130,0|2,0:0|0:0,0:0:0:0:
408,312,26675,2,0,L|423:383,1,65,8|0,0:0|0:0,0:0:0:0:
489,325,27008,6,0,L|475:261,1,65,0|0,0:0|0:0,0:0:0:0:
401,221,27341,1,8,0:0:0:0:
401,221,27508,1,0,0:0:0:0:
331,268,27675,2,0,B|289:255|267:268|267:268|240:281|202:272,1,130,0|8,0:0|0:0,0:0:0:0:
127,237,28175,1,0,0:0:0:0:
196,189,28341,6,0,P|214:159|204:60,1,130,0|8,0:0|0:0,0:0:0:0:
143,12,28841,2,0,L|279:26,1,130,0|2,0:0|0:0,0:0:0:0:
356,24,29341,2,0,L|434:11,1,65,8|0,0:0|0:0,0:0:0:0:
463,86,29675,6,0,P|402:107|329:106,1,130,0|8,0:0|0:0,0:0:0:0:
253,92,30175,1,0,0:0:0:0:
285,169,30341,2,0,P|346:190|419:189,1,130,0|8,0:0|0:0,0:0:0:0:
491,163,30841,1,0,0:0:0:0:
479,246,31008,5,0,0:0:0:0:
460,328,31175,2,0,L|471:370,2,32.5,8|0|8,0:0|0:0|0:0,0:0:0:0:
381,358,31508,1,0,0:0:0:0:
391,278,31675,2,0,L|399:246,2,32.5,8|0|2,0:0|0:0|0:0,0:0:0:0:
311,306,32008,2,0,L|242:312,1,65,8|8,0:0|0:0,0:0:0:0:
168,279,32341,6,0,P|131:295|40:268,1,130,4|12,0:0|0:0,0:0:0:0:
22,194,32841,1,0,0:0:0:0:
85,138,33008,2,0,P|87:103|70:73,1,65,0|10,0:0|0:0,0:0:0:0:
181,11,33341,2,0,P|167:39|169:72,1,65,8|0,0:0|0:0,0:0:0:0:
239,120,33675,6,0,P|290:106|363:136,1,130,0|8,0:0|0:0,0:0:0:0:
351,217,34175,2,0,P|300:231|227:201,1,130,0|10,0:0|0:0,0:0:0:0:
157,160,34675,2,0,L|85:174,1,65,8|0,0:0|0:0,0:0:0:0:
10,192,35008,5,0,0:0:0:0:
67,254,35175,2,0,L|51:325,1,65,0|8,0:0|0:0,0:0:0:0:
123,364,35508,1,0,0:0:0:0:
123,364,35675,2,0,L|137:300,1,65,0|2,0:0|0:0,0:0:0:0:
201,245,36008,2,0,P|220:281|222:308,1,65,8|0,0:0|0:0,0:0:0:0:
282,364,36341,6,0,P|268:330|303:249,1,130,0|8,0:0|0:0,0:0:0:0:
385,230,36841,2,0,L|517:251,1,130,0|10,0:0|0:0,0:0:0:0:
489,169,37341,2,0,L|417:158,1,65,8|0,0:0|0:0,0:0:0:0:
341,141,37675,5,0,0:0:0:0:
280,81,37841,2,0,P|281:38|298:14,2,65,0|8|0,0:0|0:0|0:0,0:0:0:0:
248,159,38341,2,0,L|115:137,1,130,0|8,0:0|0:0,0:0:0:0:
37,118,38841,1,0,0:0:0:0:
58,199,39008,6,0,P|58:243|3:325,1,130,0|8,0:0|0:0,0:0:0:0:
78,372,39508,2,0,P|129:333|192:325,1,130,0|10,0:0|0:0,0:0:0:0:
273,351,40008,1,8,0:0:0:0:
273,351,40175,1,0,0:0:0:0:
335,294,40341,6,0,P|357:250|338:154,1,130,4|8,0:0|0:0,0:0:0:0:
211,72,41008,1,0,0:0:0:0:
98,52,41175,1,8,0:0:0:0:
236,232,41508,1,0,0:0:0:0:
261,152,41675,5,4,0:0:0:0:
168,182,41841,1,0,0:0:0:0:
168,280,42008,1,8,0:0:0:0:
261,310,42175,1,8,0:0:0:0:
320,232,42341,1,8,0:0:0:0:
236,232,42508,1,8,0:0:0:0:
261,310,42675,2,0,P|285:337|317:347,1,65,8|8,0:0|0:0,0:0:0:0:
389,330,43008,5,2,0:2:0:0:
456,279,43175,1,0,0:0:0:0:
471,361,43341,1,0,0:0:0:0:
389,330,43508,2,0,L|356:200,1,130,2|0,0:2|0:0,0:0:0:0:
367,120,44008,2,0,P|398:100|498:109,1,130,2|0,0:2|0:0,0:0:0:0:
376,210,44508,6,0,P|336:204|302:182,1,65,2|8,0:2|0:0,0:0:0:0:
257,129,44841,1,0,0:0:0:0:
236,211,45008,2,0,P|237:259|188:329,1,130,0|2,0:0|0:2,0:0:0:0:
108,330,45508,1,2,0:2:0:0:
41,277,45675,5,0,0:0:0:0:
120,248,45841,1,0,0:0:0:0:
108,330,46008,2,0,P|80:355|52:361,2,65,2|0|2,0:2|0:0|0:2,0:0:0:0:
187,301,46508,2,0,P|203:268|166:174,1,130,0|2,0:0|0:2,0:0:0:0:
94,164,47008,6,0,P|131:163|205:91,1,130,2|0,0:2|0:0,0:0:0:0:
223,24,47508,1,2,0:2:0:0:
287,78,47675,2,0,P|314:96|357:98,1,65,2|0,0:2|0:0,0:0:0:0:
411,153,48008,2,0,P|438:135|481:133,1,65,2|0,0:2|0:0,0:0:0:0:
468,215,48341,5,0,0:0:0:0:
468,215,48508,2,0,L|321:187,1,130,2|2,0:2|0:2,0:0:0:0:
262,224,49008,2,0,L|204:340,1,130,2|0,0:2|0:0,0:0:0:0:
119,341,49508,6,0,P|55:338|13:290,1,130,2|0,0:2|0:0,0:0:0:0:
51,214,50008,2,0,P|114:216|156:264,1,130,0|0,0:0|0:0,0:0:0:0:
208,330,50508,1,2,0:2:0:0:
252,258,50675,2,0,L|274:192,1,65,2|2,0:2|0:2,0:0:0:0:
340,145,51008,5,0,0:0:0:0:
265,104,51175,1,2,0:2:0:0:
188,68,51341,1,0,0:0:0:0:
194,152,51508,2,0,L|230:297,1,130,2|0,0:2|0:0,0:0:0:0:
142,259,52008,2,0,L|110:132,1,130,2|0,0:2|0:0,0:0:0:0:
28,111,52508,6,0,L|60:238,1,130,2|2,0:2|0:2,0:0:0:0:
62,321,53008,2,0,P|29:332|-5:328,2,65,2|2|2,0:2|0:2|0:2,0:0:0:0:
133,274,53508,1,2,0:2:0:0:
204,318,53675,6,0,P|236:315|266:326,1,65,0|0,0:0|0:0,0:0:0:0:
423,262,54175,1,2,0:2:0:0:
340,247,54341,2,0,P|305:204|316:132,1,130,0|8,0:0|0:0,0:0:0:0:
244,17,54841,6,0,P|255:79|218:130,1,130,2|0,0:2|0:0,0:0:0:0:
138,157,55341,2,0,P|100:153|73:138,1,65,2|0,0:2|0:0,0:0:0:0:
23,74,55675,1,0,0:0:0:0:
23,74,55841,2,0,L|42:226,1,130,2|0,0:2|0:0,0:0:0:0:
57,285,56341,6,0,B|102:297|137:270|137:270|168:287|207:268|207:268|246:278,2,195,2|2|2,0:2|0:2|0:2,0:0:0:0:
1,220,57508,1,0,0:0:0:0:
79,188,57675,5,0,0:0:0:0:
26,122,57841,1,2,0:2:0:0:
110,112,58008,2,0,L|177:98,1,65,8|2,0:0|0:2,0:0:0:0:
213,173,58341,2,0,L|280:159,2,65,2|0|2,0:2|0:0|0:2,0:0:0:0:
171,247,58841,1,0,0:0:0:0:
228,309,59008,1,0,0:0:0:0:
228,309,59175,6,0,P|291:309|343:264,1,130,2|2,0:2|0:2,0:0:0:0:
395,203,59675,2,0,L|376:344,1,130,2|0,0:2|0:0,0:0:0:0:
455,298,60175,2,0,L|472:169,1,130,2|0,0:2|0:0,0:0:0:0:
407,115,60675,2,0,P|388:80|394:43,1,65,0|0,0:0|0:0,0:0:0:0:
473,66,61008,5,0,0:0:0:0:
479,150,61175,2,0,P|451:182|363:184,1,130,2|2,0:2|0:2,0:0:0:0:
309,125,61675,6,0,L|295:60,1,65,2|0,0:2|0:0,0:0:0:0:
203,259,62175,2,0,L|217:324,1,65,2|0,0:2|0:0,0:0:0:0:
397,283,62675,1,2,0:2:0:0:
355,209,62841,1,0,0:0:0:0:
270,198,63008,6,0,L|301:353,1,130,4|0,0:0|0:0,0:0:0:0:
355,209,63508,2,0,P|339:147|280:111,1,130,0|0,0:0|0:0,0:0:0:0:
204,132,64008,2,0,L|142:166,1,65,8|8,0:0|0:0,0:0:0:0:
145,247,64341,6,0,P|101:233|66:141,1,130,6|8,0:0|0:0,0:0:0:0:
210,218,64841,2,0,L|177:354,1,130,2|0,0:0|0:0,0:0:0:0:
263,338,65341,2,0,L|293:211,1,130,10|0,0:0|0:0,0:0:0:0:
377,201,65841,6,0,L|346:327,1,130,2|0,0:0|0:0,0:0:0:0:
423,362,66341,2,0,P|451:347|499:351,1,65,0|2,0:0|0:0,0:0:0:0:
390,276,66675,2,0,P|357:275|329:259,1,65,10|0,0:0|0:0,0:0:0:0:
284,187,67008,6,0,L|307:331,1,130,0|8,0:0|0:0,0:0:0:0:
353,126,67508,1,2,0:0:0:0:
271,104,67675,2,0,P|237:117|210:147,1,65,2|0,0:0|0:0,0:0:0:0:
79,246,68008,2,0,P|139:256|198:209,1,130,10|0,0:0|0:0,0:0:0:0:
121,168,68508,5,2,0:0:0:0:
121,168,68675,2,0,L|42:153,1,65,8|0,0:0|0:0,0:0:0:0:
210,100,69008,2,0,L|289:85,1,65,2|0,0:0|0:0,0:0:0:0:
353,225,69341,2,0,L|195:197,1,130,10|0,0:0|0:0,0:0:0:0:
317,304,69841,5,2,0:0:0:0:
401,304,70008,2,0,P|426:280|443:247,1,65,10|0,0:0|0:0,0:0:0:0:
421,169,70341,2,0,P|368:136|305:147,1,130,2|10,0:0|0:0,0:0:0:0:
246,208,70841,1,2,0:0:0:0:
183,151,71008,6,0,P|168:114|174:85,1,65,0|2,0:0|0:0,0:0:0:0:
254,109,71341,1,10,0:0:0:0:
115,194,71508,1,2,0:0:0:0:
164,313,71675,1,2,0:0:0:0:
164,313,71841,2,0,L|177:250,1,65,0|10,0:0|0:0,0:0:0:0:
228,370,72175,1,0,0:0:0:0:
309,349,72341,5,0,0:0:0:0:
326,266,72508,2,0,L|352:131,1,130,2|2,0:0|0:0,0:0:0:0:
425,98,73008,2,0,P|436:128|433:160,1,65,2|0,0:0|0:0,0:0:0:0:
266,160,73341,2,0,P|263:127|274:97,1,65,10|0,0:0|0:0,0:0:0:0:
350,138,73675,5,2,0:0:0:0:
185,192,73841,1,2,0:0:0:0:
254,240,74008,1,10,0:0:0:0:
188,108,74175,1,0,0:0:0:0:
114,148,74341,2,0,P|102:185|111:227,1,65,8|0,0:0|0:0,0:0:0:0:
142,286,74675,2,0,L|122:331,1,32.5,8|0,0:0|0:0,0:0:0:0:
192,376,74841,2,0,L|205:346,1,32.5,0|0,0:0|0:0,0:0:0:0:
258,270,75008,6,0,P|301:260|374:309,1,130,6|8,0:0|0:0,0:0:0:0:
412,375,75508,2,0,P|409:311|452:264,1,130,2|0,0:0|0:0,0:0:0:0:
511,204,76008,2,0,P|468:214|395:165,1,130,10|0,0:0|0:0,0:0:0:0:
355,98,76508,6,0,P|358:162|315:209,1,130,2|0,0:0|0:0,0:0:0:0:
233,225,77008,2,0,L|155:211,1,65,2|2,0:0|0:0,0:0:0:0:
306,314,77341,2,0,L|384:300,1,65,8|0,0:0|0:0,0:0:0:0:
235,203,77675,6,0,L|91:173,1,130,2|8,0:0|0:0,0:0:0:0:
270,124,78175,1,2,0:0:0:0:
324,187,78341,2,0,P|319:238|297:264,1,65,2|0,0:0|0:0,0:0:0:0:
251,308,78675,2,0,P|287:290|389:311,1,130,10|0,0:0|0:0,0:0:0:0:
436,357,79175,5,0,0:0:0:0:
473,281,79341,1,10,0:0:0:0:
439,203,79508,1,2,0:0:0:0:
436,118,79675,2,0,P|442:74|469:46,2,65,2|2|10,0:0|0:0|0:0,0:0:0:0:
439,203,80175,6,0,P|393:194|349:120,1,130,0|2,0:0|0:0,0:0:0:0:
280,79,80675,2,0,B|235:86|235:86|187:78|187:78|138:88,2,130,10|2|10,0:0|0:0|0:0,0:0:0:0:
350,32,81508,6,0,L|312:163,1,130,2|2,0:0|0:0,0:0:0:0:
272,230,82008,2,0,P|265:269|277:304,1,65,8|2,0:0|0:0,0:0:0:0:
195,321,82341,2,0,P|216:354|249:371,1,65,2|0,0:0|0:0,0:0:0:0:
322,364,82675,1,10,0:0:0:0:
397,327,82841,1,0,0:0:0:0:
474,292,83008,6,0,L|493:222,1,65,2|0,0:0|0:0,0:0:0:0:
409,125,83341,1,10,0:0:0:0:
409,125,83508,2,0,L|391:187,1,65,2|0,0:0|0:0,0:0:0:0:
274,244,83841,1,2,0:0:0:0:
274,244,84008,2,0,L|291:181,1,65,8|0,0:0|0:0,0:0:0:0:
167,131,84341,6,0,L|95:112,1,65,4|0,0:0|0:0,0:0:0:0:
179,40,84675,2,0,L|251:21,1,65,0|0,0:0|0:0,0:0:0:0:
146,208,85008,2,0,L|74:189,1,65,0|0,0:0|0:0,0:0:0:0:
194,281,85341,1,8,0:0:0:0:
276,301,85508,1,0,0:0:0:0:
353,266,85675,5,4,0:0:0:0:
95,286,96341,6,0,B|134:275|134:275|184:285|184:285|230:274,1,130,0|8,0:0|0:0,0:0:0:0:
417,98,97008,2,0,B|378:109|378:109|328:99|328:99|282:110,1,130,8|0,0:0|0:0,0:0:0:0:
213,142,97508,1,0,0:0:0:0:
156,79,97675,6,0,L|137:12,2,65,8|8|0,0:0|0:0|0:0,0:0:0:0:
119,155,98175,1,8,0:0:0:0:
119,155,98258,1,0,0:0:0:0:
119,155,98341,1,0,0:0:0:0:
174,218,98508,1,8,0:0:0:0:
258,216,98675,2,0,L|326:200,1,65,8|8,0:0|0:0,0:0:0:0:
442,302,99008,6,0,L|295:277,2,130,0|0|8,0:0|0:0|0:0,0:0:0:0:
498,238,99841,1,8,0:0:0:0:
434,182,100008,2,0,P|420:150|428:113,1,65,2|8,0:0|0:0,0:0:0:0:
435,109,100258,1,0,0:0:0:0:
446,97,100341,6,0,P|460:65|452:28,1,65,8|2,0:0|0:0,0:0:0:0:
373,14,100675,2,0,L|282:28,1,65,8|8,0:0|0:0,0:0:0:0:
292,25,100925,1,0,0:0:0:0:
276,27,101008,2,0,L|185:41,1,65,2|8,0:0|0:0,0:0:0:0:
161,123,101341,2,0,L|225:113,1,65,8|8,0:0|0:0,0:0:0:0:
303,194,101675,6,0,B|259:200|259:200|221:193|221:193|170:201,1,130,0|0,1:0|1:0,0:0:0:0:
32,291,102341,2,0,B|76:285|76:285|114:292|114:292|165:284,1,130,0|0,1:0|1:0,0:0:0:0:
231,238,102841,1,8,0:0:0:0:
265,318,103008,6,0,P|315:330|421:313,1,130,0|0,1:0|1:0,0:0:0:0:
512,161,103675,2,0,P|462:149|356:166,1,130,0|0,1:0|1:0,0:0:0:0:
314,203,104175,1,8,0:0:0:0:
249,149,104341,6,0,B|228:102|228:102|256:12,2,130,0|0|0,1:0|1:0|1:0,0:0:0:0:
314,203,105175,1,8,0:0:0:0:
253,261,105341,2,0,L|232:343,1,65,0|8,1:0|0:0,0:0:0:0:
234,340,105591,1,2,0:0:0:0:
229,355,105675,6,0,L|156:339,1,65,0|4,1:0|0:3,0:0:0:0:
318,315,106008,2,0,L|381:328,1,65,0|8,1:0|0:0,0:0:0:0:
501,262,106341,2,0,L|437:248,1,65,0|0,1:0|1:0,0:0:0:0:
380,183,106675,2,0,L|373:144,3,32.5,2|0|2|0,0:1|0:0|0:1|0:0,0:0:0:0:
366,109,107008,6,0,P|325:106|224:56,1,130,4|8,1:2|0:0,0:0:0:0:
89,161,107508,1,0,0:0:0:0:
172,176,107675,2,0,P|208:171|246:155,1,65
355,242,108008,2,0,P|319:237|281:221,1,65,8|0,0:0|0:0,0:0:0:0:
410,183,108341,6,0,L|388:324,2,130,0|8|0,1:0|0:0|0:0,0:0:0:0:
422,98,109175,2,0,L|457:72,2,32.5,0|0|8,0:0|0:0|0:0,0:0:0:0:
343,128,109508,1,0,0:0:0:0:
343,128,109675,6,0,L|271:114,1,65,0|0,1:0|0:0,0:0:0:0:
170,167,110008,2,0,L|233:179,1,65,8|0,0:0|0:0,0:0:0:0:
296,236,110341,2,0,P|300:278|290:304,1,65,0|0,0:0|0:0,0:0:0:0:
284,313,110591,1,0,0:0:0:0:
271,323,110675,2,0,L|199:331,1,65,8|0,0:0|0:0,0:0:0:0:
122,339,111008,5,0,1:0:0:0:
146,258,111175,1,0,0:0:0:0:
62,270,111341,2,0,P|26:265|-3:250,1,65,8|0,0:0|0:0,0:0:0:0:
21,169,111675,2,0,P|57:174|86:189,1,65,0|0,0:0|0:0,0:0:0:0:
93,198,111925,1,0,0:0:0:0:
101,211,112008,2,0,L|120:141,1,65,8|0,0:0|0:0,0:0:0:0:
137,65,112341,6,0,L|123:18,2,32.5,0|0|0,1:0|0:0|0:0,0:0:0:0:
213,103,112675,2,0,L|294:95,1,65,8|0,0:0|0:0,0:0:0:0:
440,159,113008,2,0,P|399:153|367:133,1,65,0|0,0:0|0:0,0:0:0:0:
367,130,113258,1,0,0:0:0:0:
358,116,113341,2,0,L|348:47,1,65,8|0,0:0|0:0,0:0:0:0:
298,182,113675,6,0,L|307:246,1,65,0|0,1:0|0:0,0:0:0:0:
311,262,113925,1,0,0:0:0:0:
313,277,114008,2,0,L|242:287,1,65,8|0,0:0|0:0,0:0:0:0:
164,294,114341,2,0,P|119:277|99:250,2,65,0|0|8,0:0|0:0|0:0,0:0:0:0:
175,210,114841,1,0,0:0:0:0:
92,189,115008,6,0,P|54:209|39:302,2,130,0|8|0,1:0|0:0|0:0,0:0:0:0:
175,210,115841,1,0,0:0:0:0:
154,126,116008,2,0,P|121:103|85:100,1,65,8|0,0:0|0:0,0:0:0:0:
217,66,116341,6,0,L|281:56,1,65,0|0,1:0|0:0,0:0:0:0:
366,77,116675,1,0,0:0:0:0:
366,77,116841,2,0,L|398:70,9,32.5,8|0|8|0|8|0|8|8|8|8,0:0|0:0|0:0|0:0|0:0|0:0|0:0|0:0|0:0|0:0,0:0:0:0:
398,70,117675,6,0,L|368:206,1,130,12|8,0:0|0:0,0:0:0:0:
342,276,118175,1,8,0:0:0:0:
422,301,118341,2,0,P|460:300|489:283,1,65,8|0,0:0|0:0,0:0:0:0:
342,276,118675,2,0,P|312:262|280:262,1,65,8|8,0:0|0:0,0:0:0:0:
208,306,119008,6,0,B|121:318|121:318|78:299,2,130,0|8|8,0:0|0:0|0:0,0:0:0:0:
260,239,119841,1,8,0:0:0:0:
259,154,120008,2,0,P|252:116|234:91,1,65,8|8,0:0|0:0,0:0:0:0:
172,40,120341,6,0,L|310:52,2,130,8|8|8,0:0|0:0|0:0,0:0:0:0:
93,73,121175,1,0,0:0:0:0:
93,73,121258,1,0,0:0:0:0:
93,73,121341,2,0,L|21:65,1,65,8|0,0:0|0:0,0:0:0:0:
165,126,121675,6,0,L|229:133,1,65,8|8,0:0|0:0,0:0:0:0:
298,183,122008,2,0,P|269:207|236:216,1,65,8|8,0:0|0:0,0:0:0:0:
158,215,122341,2,0,L|86:207,1,65,8|8,0:0|0:0,0:0:0:0:
199,295,122675,2,0,L|184:326,3,32.5,8|8|8|8,0:0|0:0|0:0|0:0,0:0:0:0:
199,295,123008,6,0,L|263:302,1,65,4|0,0:0|0:0,0:0:0:0:
405,245,123341,2,0,L|341:238,1,65,8|8,0:0|0:0,0:0:0:0:
324,236,123591,1,0,0:0:0:0:
308,231,123675,2,0,P|291:191|313:109,1,130,8|8,0:0|0:0,0:0:0:0:
383,64,124175,1,0,0:0:0:0:
383,64,124258,1,0,0:0:0:0:
383,64,124341,5,8,0:0:0:0:
464,41,124508,1,0,0:0:0:0:
443,123,124675,1,8,0:0:0:0:
361,145,124841,1,8,0:0:0:0:
298,87,125008,2,0,L|283:22,1,65,8|8,0:0|0:0,0:0:0:0:
238,161,125341,2,0,L|223:224,1,65,8|8,0:0|0:0,0:0:0:0:
198,305,125675,6,0,L|188:341,2,32.5,8|0|8,0:0|0:0|0:0,0:0:0:0:
299,258,126008,2,0,L|307:226,2,32.5,8|0|8,0:0|0:0|0:0,0:0:0:0:
357,343,126341,2,0,L|347:379,2,32.5,8|0|8,0:0|0:0|0:0,0:0:0:0:
433,266,126675,1,8,0:0:0:0:
433,266,126758,1,0,0:0:0:0:
433,266,126841,1,8,0:0:0:0:
375,177,127008,6,0,P|369:143|382:102,1,65,8|0,0:0|0:0,0:0:0:0:
462,27,127341,2,0,P|468:58|462:90,1,65,8|0,0:0|0:0,0:0:0:0:
293,104,127675,2,0,L|251:91,3,32.5,2|0|2|0,0:0|0:0|0:0|0:0,0:0:0:0:
221,81,128008,1,14,0:0:0:0:
55,114,128341,6,0,L|36:185,1,65,4|0,0:0|0:0,0:0:0:0:
122,188,128675,2,0,L|105:253,1,65,8|0,0:0|0:0,0:0:0:0:
23,277,129008,2,0,P|38:305|63:325,1,65
146,344,129341,1,8,0:0:0:0:
227,319,129508,1,0,0:0:0:0:
227,319,129591,1,0,0:0:0:0:
227,319,129675,6,0,L|299:311,1,65,0|0,0:0|0:0,0:0:0:0:
436,341,130008,2,0,L|371:348,1,65,8|0,0:0|0:0,0:0:0:0:
305,226,130341,2,0,P|337:215|373:219,1,65
510,170,130675,2,0,P|478:164|450:147,1,65,8|0,0:0|0:0,0:0:0:0:
398,80,131008,6,0,L|433:234,1,130,0|8,0:0|0:0,0:0:0:0:
435,290,131508,1,0,0:0:0:0:
351,291,131675,2,0,L|287:283,1,65,0|0,0:0|0:0,0:0:0:0:
270,281,131925,1,0,0:0:0:0:
254,278,132008,2,0,L|190:270,1,65,8|0,0:0|0:0,0:0:0:0:
39,205,132341,6,0,B|85:187|85:187|175:199,1,130,0|8,0:0|0:0,0:0:0:0:
248,187,132841,1,0,0:0:0:0:
200,116,133008,2,0,P|185:87|187:48,1,65,0|0,0:0|0:0,0:0:0:0:
268,70,133341,2,0,L|306:75,3,32.5,8|0|8|0,0:0|0:0|0:0|0:0,0:0:0:0:
343,78,133675,6,0,L|417:63,1,65,0|0,0:0|0:0,0:0:0:0:
487,40,134008,1,8,0:0:0:0:
400,154,134175,1,0,0:0:0:0:
400,154,134341,2,0,L|463:166,1,65,0|0,0:0|0:0,0:0:0:0:
476,177,134591,1,0,0:0:0:0:
484,190,134675,2,0,P|492:234|485:261,1,65,8|0,0:0|0:0,0:0:0:0:
480,267,134925,1,0,0:0:0:0:
467,277,135008,6,0,B|431:266|403:280|403:280|375:294|333:283,1,130,0|8,0:0|0:0,0:0:0:0:
264,245,135508,1,0,0:0:0:0:
225,320,135675,2,0,L|205:382,2,65,0|0|8,0:0|0:0|0:0,0:0:0:0:
174,252,136175,1,0,0:0:0:0:
128,180,136341,6,0,L|63:174,1,65,0|0,0:0|0:0,0:0:0:0:
0,285,136675,2,0,L|65:279,1,65,8|0,0:0|0:0,0:0:0:0:
212,174,137008,2,0,P|198:136|171:104,1,65,0|0,0:0|0:0,0:0:0:0:
101,97,137341,1,8,0:0:0:0:
149,27,137508,1,0,0:0:0:0:
149,27,137675,6,0,P|109:55|24:52,1,130,0|8,0:0|0:0,0:0:0:0:
18,222,138341,2,0,L|54:214,3,32.5
92,219,138675,2,0,L|123:226,3,32.5,8|0|0|0,0:0|0:0|0:0|0:0,0:0:0:0:
165,235,139008,6,0,L|263:218,1,97.5,2|0,0:2|0:0,0:0:0:0:
301,205,139341,6,0,L|371:214,1,65,12|0,0:0|0:0,0:0:0:0:
447,234,139675,1,0,0:0:0:0:
410,158,139841,1,0,0:0:0:0:
451,84,140008,1,8,0:0:0:0:
416,8,140175,1,0,0:0:0:0:
416,8,140258,1,0,0:0:0:0:
416,8,140341,6,0,L|344:4,1,65,0|0,0:0|0:0,0:0:0:0:
208,49,140675,2,0,L|272:52,1,65,8|0,0:0|0:0,0:0:0:0:
328,116,141008,1,0,0:0:0:0:
282,187,141175,1,0,0:0:0:0:
297,269,141341,2,0,L|315:346,1,65,8|0,0:0|0:0,0:0:0:0:
207,238,141675,6,0,B|179:210|151:206|151:206|122:203|92:179,1,130,0|8,0:0|0:0,0:0:0:0:
51,113,142175,2,0,L|42:77,2,32.5,0|0|0,0:0|0:0|0:0,0:0:0:0:
129,111,142508,2,0,L|138:75,2,32.5,0|0|8,0:0|0:0|0:0,0:0:0:0:
204,149,142841,1,0,0:0:0:0:
257,214,143008,6,0,P|263:251|260:293,1,65,0|0,0:0|0:0,0:0:0:0:
257,294,143258,1,0,0:0:0:0:
246,306,143341,2,0,P|299:298|363:343,2,130,8|0|8,0:0|0:0|0:0,0:0:0:0:
173,350,144175,1,0,0:0:0:0:
173,350,144341,6,0,L|99:332,1,65,0|0,0:0|0:0,0:0:0:0:
7,271,144675,2,0,L|81:253,1,65,8|0,0:0|0:0,0:0:0:0:
85,251,144925,1,0,0:0:0:0:
100,245,145008,2,0,L|174:227,1,65,0|0,0:0|0:0,0:0:0:0:
243,201,145341,2,0,P|262:170|265:131,1,65,8|0,0:0|0:0,0:0:0:0:
256,130,145591,1,0,0:0:0:0:
246,116,145675,6,0,L|395:144,1,130,0|8,0:0|0:0,0:0:0:0:
453,242,146175,1,0,0:0:0:0:
453,242,146341,2,0,L|325:217,1,130,0|8,0:0|0:0,0:0:0:0:
243,201,146841,1,0,0:0:0:0:
220,279,147008,6,0,L|202:318,2,32.5,0|0|0,0:0|0:0|0:0,0:0:0:0:
161,217,147341,2,0,L|84:203,1,65,8|0,0:0|0:0,0:0:0:0:
53,132,147675,2,0,L|66:102,2,32.5,0|0|0,0:0|0:0|0:0,0:0:0:0:
155,78,148008,2,0,L|141:48,2,32.5,8|0|0,0:0|0:0|0:0,0:0:0:0:
232,111,148341,6,0,L|309:97,1,65,0|0,0:0|0:0,0:0:0:0:
378,78,148675,1,8,0:0:0:0:
400,159,148841,1,0,0:0:0:0:
317,176,149008,2,0,L|253:187,1,65,8|0,0:0|0:0,0:0:0:0:
171,210,149341,2,0,L|128:217,3,32.5,8|0|0|0,0:0|0:0|0:0|0:0,0:0:0:0:
97,223,149675,6,0,P|73:267|101:354,1,130,6|8,0:0|0:0,0:0:0:0:
169,369,150175,1,2,0:0:0:0:
234,315,150341,2,0,L|257:238,1,65,2|0,0:0|0:0,0:0:0:0:
356,190,150675,2,0,L|337:252,1,65,8|2,0:0|0:0,0:0:0:0:
340,268,150925,1,0,0:0:0:0:
344,283,151008,6,0,L|359:359,1,65,2|0,0:0|0:0,0:0:0:0:
457,287,151341,2,0,L|444:223,1,65,10|0,0:0|0:0,0:0:0:0:
426,140,151675,2,0,P|382:107|305:117,1,130,0|10,0:0|0:0,0:0:0:0:
257,179,152175,1,0,0:0:0:0:
174,164,152341,6,0,L|102:150,2,65,0|0|10,0:0|0:0|0:0,0:0:0:0:
229,100,152841,2,0,L|301:86,2,65,0|2|0,0:0|0:0|0:0,0:0:0:0:
145,84,153341,2,0,P|122:41|127:9,1,65,8|0,0:0|0:0,0:0:0:0:
174,164,153675,6,0,L|139:317,1,130,2|10,0:0|0:0,0:0:0:0:
121,371,154175,1,0,0:0:0:0:
204,358,154341,2,0,P|242:337|283:338,1,65,2|0,0:0|0:0,0:0:0:0:
347,348,154675,2,0,L|381:361,3,32.5,10|0|8|0,0:0|0:0|0:0|0:0,0:0:0:0:
417,372,155008,6,0,L|495:356,1,65,0|0,0:0|0:0,0:0:0:0:
512,265,155341,1,10,0:0:0:0:
512,265,155508,2,0,L|434:249,1,65,0|0,0:0|0:0,0:0:0:0:
366,229,155841,1,0,0:0:0:0:
407,155,156008,1,10,0:0:0:0:
350,91,156175,1,0,0:0:0:0:
310,165,156341,6,0,L|264:159,2,32.5,2|0|0,0:0|0:0|0:0,0:0:0:0:
366,229,156675,2,0,L|346:311,1,65,10|0,0:0|0:0,0:0:0:0:
256,379,157008,2,0,L|240:315,1,65,2|0,0:0|0:0,0:0:0:0:
213,235,157341,1,10,0:0:0:0:
154,295,157508,1,0,0:0:0:0:
112,221,157675,6,0,L|96:157,1,65,0|0,0:0|0:0,0:0:0:0:
155,45,158008,2,0,L|171:109,1,65,10|0,0:0|0:0,0:0:0:0:
244,149,158341,2,0,P|281:147|312:135,1,65,0|0,0:0|0:0,0:0:0:0:
389,160,158675,2,0,P|426:162|457:174,1,65,10|0,0:0|0:0,0:0:0:0:
493,245,159008,6,0,L|473:382,1,130,0|10,0:0|0:0,0:0:0:0:
239,286,159675,1,0,0:0:0:0:
191,216,159841,1,0,0:0:0:0:
275,209,160008,2,0,L|310:200,3,32.5,10|0|2|0,0:0|0:0|0:0|0:0,0:0:0:0:
348,191,160341,6,0,P|375:152|377:126,1,65,6|0,0:0|0:0,0:0:0:0:
298,26,160675,2,0,P|306:57|327:81,1,65,10|0,0:0|0:0,0:0:0:0:
381,16,161008,1,2,0:0:0:0:
240,101,161175,1,0,0:0:0:0:
240,101,161341,6,0,L|175:89,1,65,8|0,0:0|0:0,0:0:0:0:
160,86,161591,1,0,0:0:0:0:
143,82,161675,2,0,L|72:114,1,65,0|2,0:0|0:0,0:0:0:0:
33,227,162008,2,0,L|92:200,1,65,10|0,0:0|0:0,0:0:0:0:
173,176,162341,2,0,B|186:211|186:211|161:321,1,130,2|10,0:0|0:0,0:0:0:0:
136,381,162841,1,2,0:0:0:0:
220,372,163008,6,0,P|255:349|290:347,1,65,2|0,0:0|0:0,0:0:0:0:
415,328,163341,2,0,P|383:321|357:301,1,65,10|0,0:0|0:0,0:0:0:0:
313,229,163675,2,0,L|299:159,1,65,2|0,0:0|0:0,0:0:0:0:
195,91,164008,2,0,L|207:154,1,65,10|2,0:0|0:0,0:0:0:0:
244,15,164341,6,0,P|211:2|121:41,1,130,0|8,0:0|0:0,0:0:0:0:
93,111,164841,1,0,0:0:0:0:
62,189,165008,2,0,L|48:258,1,65,0|0,0:0|0:0,0:0:0:0:
132,269,165341,2,0,L|123:308,3,32.5,10|0|10|0,0:0|0:0|0:0|0:0,0:0:0:0:
111,341,165675,6,0,L|188:334,1,65,2|0,0:0|0:0,0:0:0:0:
298,255,166008,2,0,L|233:260,1,65,8|0,0:0|0:0,0:0:0:0:
368,309,166341,2,0,P|384:278|384:239,1,65,0|2,0:0|0:0,0:0:0:0:
305,104,166675,2,0,P|305:136|321:164,1,65,10|2,0:0|0:0,0:0:0:0:
334,174,166925,1,0,0:0:0:0:
348,180,167008,6,0,L|415:172,1,65,2|2,0:0|0:0,0:0:0:0:
243,187,167341,2,0,L|178:194,2,65,8|0|0,0:0|0:0|0:0,0:0:0:0:
294,119,167841,1,2,0:0:0:0:
211,99,168008,2,0,L|146:106,1,65,8|2,0:0|0:0,0:0:0:0:
62,116,168341,6,0,P|22:100|6:81,1,65
0,243,168675,2,0,P|23:220|54:211,1,65,10|0,0:0|0:0,0:0:0:0:
138,221,169008,2,0,L|174:283,1,65,0|2,0:0|0:0,0:0:0:0:
247,367,169341,2,0,L|279:310,1,65,8|0,0:0|0:0,0:0:0:0:
326,239,169675,5,0,0:0:0:0:
396,284,169841,1,0,0:0:0:0:
463,232,170008,2,0,L|485:191,3,32.5,8|0|0|0,0:0|0:0|0:0|0:0,0:0:0:0:
460,165,170341,2,0,L|450:121,3,32.5,8|0|0|0,0:0|0:0|0:0|0:0,0:0:0:0:
470,94,170675,2,0,L|492:53,3,32.5,8|0|8|0,0:0|0:0|0:0|0:0,0:0:0:0:
508,29,171008,5,4,0:0:0:0:
