osu file format v14

[General]
AudioFilename: 06 perthed again (yambabom remix).mp3
AudioLeadIn: 0
PreviewTime: 106997
Countdown: 0
SampleSet: Normal
StackLeniency: 0.7
Mode: 0
LetterboxInBreaks: 0
WidescreenStoryboard: 0

[Editor]
Bookmarks: 32330,40330,42997,61664,85664,96330,148164
DistanceSpacing: 0.8
BeatDivisor: 4
GridSize: 4
TimelineZoom: 2.1

[Metadata]
Title:perthed again (yambabom remix)
TitleUnicode:perthed again (yambabom remix)
Artist:Hitori Tori
ArtistUnicode:Hitori Tori
Creator:Asphyxia
Version:Extra
Source:
Tags:breakcore collab collaboration Zapy ktgster Frey Irreversible Aka
BeatmapID:611751
BeatmapSetID:268693

[Difficulty]
HPDrainRate:6
CircleSize:4
OverallDifficulty:9
ApproachRate:9.6
SliderMultiplier:1.8
SliderTickRate:2

[Events]
//Background and Video events
0,0,"uh.png",0,0
//Break Periods
2,85875,95832
//Storyboard Layer 0 (Background)
//Storyboard Layer 1 (Fail)
//Storyboard Layer 2 (Pass)
//Storyboard Layer 3 (Foreground)
//Storyboard Sound Samples

[TimingPoints]
342,333.333333333333,4,1,0,50,1,0
11008,-100,4,1,0,60,0,0
21675,-100,4,1,0,70,0,0
32591,-100,4,1,0,40,0,0
32675,-100,4,1,0,70,0,1
32758,-100,4,1,0,70,0,0
43008,-200,4,1,0,50,0,0
52925,-200,4,1,0,20,0,0
53008,-200,4,1,0,50,0,0
53091,-200,4,1,0,20,0,0
53175,-200,4,1,0,50,0,0
53258,-200,4,1,0,20,0,0
53341,-200,4,1,0,50,0,0
53425,-200,4,1,0,20,0,0
53508,-200,4,1,0,50,0,0
64341,-100,4,1,0,60,0,0
64841,-100,4,1,1,60,0,0
74258,-100,4,1,0,20,0,0
74341,-100,4,1,0,60,0,0
74425,-100,4,1,0,20,0,0
74508,-100,4,1,0,60,0,0
74591,-100,4,1,0,20,0,0
74675,-100,4,1,0,60,0,0
74758,-100,4,1,0,20,0,0
74841,-100,4,1,0,60,0,0
74925,-100,4,1,0,20,0,0
75008,-100,4,1,1,60,0,0
81508,-100,4,1,0,60,0,0
82008,-100,4,1,1,60,0,0
85675,-100,4,2,0,70,0,0
107008,-100,4,2,0,80,0,1
107091,-100,4,2,0,80,0,0
117675,-100,4,2,0,80,0,1
117758,-100,4,2,0,80,0,0
127675,-58.8235294117647,4,2,0,80,0,0
128008,-100,4,2,0,90,0,0
128341,-58.8235294117647,4,1,0,80,0,1
139008,-100,4,1,0,60,0,0
139341,-58.8235294117647,4,1,0,80,0,1
149591,-58.8235294117647,4,1,0,60,0,0
149675,-58.8235294117647,4,1,0,85,0,1
169675,-55.5555555555556,4,1,0,85,0,1
170341,-52.6315789473684,4,1,0,90,0,1
170675,-50,4,1,0,90,0,1
171008,-100,4,1,0,80,0,0

[Colours]
Combo1 : 255,0,0
Combo2 : 255,128,64

[HitObjects]
111,326,342,5,4,0:0:0:0:
284,304,508,2,0,L|463:288,1,180
228,80,1008,2,0,L|48:95,1,180
48,95,1508,1,2,0:0:0:0:
296,160,1675,6,0,P|331:94|291:-4,1,180
216,224,2175,2,0,P|181:290|221:388,1,180
399,177,2675,1,2,0:0:0:0:
162,140,2841,1,2,0:0:0:0:
442,258,3008,5,0,0:0:0:0:
253,99,3175,2,0,P|205:117|83:50,1,180
259,285,3675,2,0,P|307:267|429:334,1,180
419,316,4175,1,2,0:0:0:0:
127,246,4341,6,0,P|56:217|108:161,1,180
404,161,4841,2,0,P|456:217|386:247,1,180
149,90,5341,1,2,0:0:0:0:
255,325,5508,1,2,0:0:0:0:
255,24,5675,5,2,0:0:0:0:
363,294,5841,2,0,P|422:307|486:205,1,180
149,90,6341,2,0,P|90:77|26:179,1,180
23,161,6841,1,2,0:0:0:0:
386,86,7008,6,0,L|183:33,1,180
126,298,7508,2,0,L|329:351,1,180,0|0,0:0|0:0,0:0:0:0:
256,192,8008,1,2,0:0:0:0:
456,148,8175,1,2,0:0:0:0:
188,244,8341,5,0,0:0:0:0:
428,316,8508,2,0,P|332:324|260:268,1,180
84,68,9008,2,0,P|180:60|252:116,1,180
147,171,9508,1,2,0:0:0:0:
332,32,9675,5,4,0:0:0:0:
364,304,9841,1,0,0:0:0:0:
364,304,9925,1,0,0:0:0:0:
364,304,10008,1,8,0:0:0:0:
480,124,10175,1,4,0:0:0:0:
200,244,10341,1,0,0:0:0:0:
200,244,10425,1,0,0:0:0:0:
200,244,10508,1,8,0:0:0:0:
404,76,10675,1,8,0:0:0:0:
370,106,10758,1,0,0:0:0:0:
326,116,10841,1,0,0:0:0:0:
283,99,10925,1,0,0:0:0:0:
254,64,11008,5,4,0:0:0:0:
86,187,11175,1,0,0:0:0:0:
120,180,11258,1,0,0:0:0:0:
156,172,11341,1,8,0:0:0:0:
352,240,11508,1,0,0:0:0:0:
12,124,11675,2,0,L|192:88,1,180,0|8,0:0|0:0,0:0:0:0:
268,328,12175,1,2,0:0:0:0:
232,320,12258,1,0,0:0:0:0:
196,312,12341,5,0,0:0:0:0:
16,268,12508,1,0,0:0:0:0:
192,72,12675,1,8,0:0:0:0:
324,360,12841,2,0,L|144:324,1,180,0|0,0:0|0:0,0:0:0:0:
424,288,13341,1,8,0:0:0:0:
316,28,13508,1,2,0:0:0:0:
184,232,13675,5,0,0:0:0:0:
412,192,13841,1,0,0:0:0:0:
448,184,13925,1,0,0:0:0:0:
484,176,14008,1,8,0:0:0:0:
152,132,14175,1,0,0:0:0:0:
424,288,14341,2,0,P|360:272|321:158,1,180,0|8,0:0|0:0,0:0:0:0:
125,35,14841,1,2,0:0:0:0:
108,68,14925,1,0,0:0:0:0:
92,100,15008,5,0,0:0:0:0:
248,296,15175,1,0,0:0:0:0:
200,68,15341,1,8,0:0:0:0:
164,344,15508,2,0,L|348:324,1,180
68,256,16008,1,8,0:0:0:0:
204,56,16175,1,2,0:0:0:0:
264,372,16341,5,0,0:0:0:0:
356,208,16508,1,0,0:0:0:0:
372,176,16591,1,0,0:0:0:0:
388,144,16675,1,8,0:0:0:0:
200,216,16841,1,0,0:0:0:0:
484,136,17008,2,0,P|443:67|339:63,1,180,0|8,0:0|0:0,0:0:0:0:
108,136,17508,1,2,0:0:0:0:
144,144,17591,1,0,0:0:0:0:
180,156,17675,5,0,0:0:0:0:
350,57,17841,1,0,0:0:0:0:
296,320,18008,1,8,0:0:0:0:
248,96,18175,2,0,L|60:120,1,180,0|0,0:0|0:0,0:0:0:0:
312,188,18675,1,8,0:0:0:0:
356,32,18841,1,2,0:0:0:0:
288,264,19008,5,0,0:0:0:0:
436,140,19175,1,0,0:0:0:0:
472,132,19258,1,0,0:0:0:0:
508,124,19341,1,8,0:0:0:0:
268,0,19508,1,0,0:0:0:0:
264,336,19675,2,0,L|76:312,1,180,0|8,0:0|0:0,0:0:0:0:
380,240,20175,1,2,0:0:0:0:
416,232,20258,1,0,0:0:0:0:
452,224,20341,6,0,L|440:316,1,90,4|0,0:0|0:0,0:0:0:0:
60,160,20675,1,2,0:0:0:0:
60,160,20841,2,0,L|71:70,1,90,4|0,0:0|0:0,0:0:0:0:
372,208,21175,1,2,0:0:0:0:
372,208,21341,2,0,L|361:298,1,90,8|0,0:0|0:0,0:0:0:0:
256,28,21675,5,4,0:0:0:0:
200,284,21841,1,0,0:0:0:0:
164,288,21925,1,0,0:0:0:0:
128,292,22008,1,8,0:0:0:0:
308,128,22175,2,0,L|372:120,1,45
280,216,22341,2,0,L|235:221,1,45
408,64,22508,1,2,0:0:0:0:
200,284,22675,1,8,0:0:0:0:
140,48,22841,1,0,0:0:0:0:
304,328,23008,5,0,0:0:0:0:
339,322,23091,1,0,0:0:0:0:
376,317,23175,1,0,0:0:0:0:
412,313,23258,1,0,0:0:0:0:
449,308,23341,1,8,0:0:0:0:
180,188,23508,2,0,L|120:176,1,45,0|0,0:0|0:0,0:0:0:0:
248,128,23675,2,0,L|292:136,1,45,0|0,0:0|0:0,0:0:0:0:
52,204,23841,1,2,0:0:0:0:
372,136,24008,1,8,0:0:0:0:
272,272,24175,1,0,0:0:0:0:
104,136,24341,5,0,0:0:0:0:
92,104,24425,1,0,0:0:0:0:
80,72,24508,1,0,0:0:0:0:
68,36,24591,1,0,0:0:0:0:
55,4,24675,1,8,0:0:0:0:
188,288,24841,2,0,L|168:360,1,45,0|0,0:0|0:0,0:0:0:0:
272,272,25008,2,0,L|284:228,1,45
112,368,25175,1,2,0:0:0:0:
340,176,25341,1,8,0:0:0:0:
348,364,25508,1,0,0:0:0:0:
432,108,25675,5,0,0:0:0:0:
405,83,25758,1,0,0:0:0:0:
372,67,25841,1,0,0:0:0:0:
335,62,25925,1,0,0:0:0:0:
300,70,26008,1,8,0:0:0:0:
440,220,26175,2,0,L|484:225,1,45,0|0,0:0|0:0,0:0:0:0:
352,264,26341,2,0,L|307:258,1,45,0|0,0:0|0:0,0:0:0:0:
496,156,26508,1,2,0:0:0:0:
232,280,26675,1,8,0:0:0:0:
224,24,26841,1,0,0:0:0:0:
152,308,27008,5,0,0:0:0:0:
171,338,27091,1,0,0:0:0:0:
201,358,27175,1,0,0:0:0:0:
236,364,27258,1,0,0:0:0:0:
270,354,27341,1,8,0:0:0:0:
98,215,27508,2,0,L|40:206,1,45
206,178,27675,2,0,L|250:184,1,45
4,262,27841,1,2,0:0:0:0:
328,164,28008,1,8,0:0:0:0:
112,76,28175,1,0,0:0:0:0:
276,252,28341,5,0,0:0:0:0:
312,264,28425,1,0,0:0:0:0:
347,263,28508,1,0,0:0:0:0:
380,251,28591,1,0,0:0:0:0:
406,226,28675,1,8,0:0:0:0:
232,39,28841,2,0,L|250:96,1,45
220,220,29008,2,0,L|206:177,1,45
302,13,29175,1,2,0:0:0:0:
184,292,29341,1,8,0:0:0:0:
328,164,29508,1,0,0:0:0:0:
144,220,29675,5,0,0:0:0:0:
108,212,29758,1,0,0:0:0:0:
72,204,29841,1,0,0:0:0:0:
36,196,29925,1,0,0:0:0:0:
0,188,30008,1,8,0:0:0:0:
224,120,30175,2,0,L|288:108,1,45
108,88,30341,2,0,L|63:79,1,45,0|0,0:0|0:0,0:0:0:0:
328,164,30508,2,0,L|392:152,1,45,2|0,0:0|0:0,0:0:0:0:
320,248,30675,2,0,L|233:223,1,90,8|0,0:0|0:0,0:0:0:0:
312,328,30925,1,0,0:0:0:0:
312,328,31008,6,0,L|364:344,1,45
200,328,31175,2,0,L|148:344,1,45,8|0,0:0|0:0,0:0:0:0:
400,212,31341,1,8,0:0:0:0:
112,124,31508,2,0,L|67:132,1,45
400,124,31675,2,0,L|444:132,1,45,8|0,0:0|0:0,0:0:0:0:
256,196,31841,1,2,0:0:0:0:
256,28,32008,1,8,0:0:0:0:
256,356,32175,1,8,0:0:0:0:
480,176,32341,6,0,L|328:136,1,135,4|0,0:0|0:0,0:0:0:0:
220,92,32675,1,12,0:0:0:0:
324,296,32841,2,0,L|376:288,1,45
184,264,33008,2,0,L|132:256,1,45
280,172,33175,2,0,L|332:164,1,45,10|0,0:0|0:0,0:0:0:0:
152,144,33341,2,0,L|52:124,1,90,8|0,0:0|0:0,0:0:0:0:
310,88,33591,1,0,0:0:0:0:
310,88,33675,6,0,L|398:70,1,90,0|0,0:0|0:0,0:0:0:0:
456,320,34008,1,8,0:0:0:0:
252,280,34175,2,0,L|264:340,1,45
108,292,34341,2,0,L|99:247,1,45
320,204,34508,2,0,L|332:264,1,45,10|0,0:0|0:0,0:0:0:0:
360,376,34675,1,8,0:0:0:0:
412,144,34841,1,0,0:0:0:0:
412,144,34925,1,0,0:0:0:0:
412,144,35008,5,0,0:0:0:0:
196,52,35175,1,0,0:0:0:0:
28,240,35341,1,8,0:0:0:0:
224,184,35508,2,0,L|168:172,1,45
252,280,35675,2,0,L|296:289,1,45
332,100,35841,2,0,L|276:88,1,45,2|0,0:0|0:0,0:0:0:0:
412,240,36008,2,0,L|513:266,1,90,8|0,0:0|0:0,0:0:0:0:
499,122,36258,1,0,0:0:0:0:
499,122,36341,6,0,L|398:148,1,90,0|0,0:0|0:0,0:0:0:0:
124,212,36675,1,8,0:0:0:0:
352,348,36841,2,0,L|412:356,1,45
252,280,37008,2,0,L|192:288,1,45
318,181,37175,2,0,L|362:175,1,45,10|0,0:0|0:0,0:0:0:0:
498,147,37341,1,8,0:0:0:0:
243,55,37508,1,0,0:0:0:0:
243,55,37591,1,0,0:0:0:0:
243,55,37675,5,0,0:0:0:0:
144,324,37841,1,0,0:0:0:0:
280,120,38008,1,8,0:0:0:0:
76,348,38175,2,0,L|20:356,1,45
184,200,38341,2,0,L|228:193,1,45
264,352,38508,2,0,L|208:360,1,45,2|0,0:0|0:0,0:0:0:0:
348,264,38675,2,0,L|444:248,1,90,8|0,0:0|0:0,0:0:0:0:
224,272,38925,1,0,0:0:0:0:
224,272,39008,6,0,L|135:286,1,90,0|0,0:0|0:0,0:0:0:0:
360,56,39341,1,8,0:0:0:0:
140,132,39508,2,0,L|85:141,1,45
280,200,39675,2,0,L|335:209,1,45
128,56,39841,2,0,L|83:63,1,45,10|0,0:0|0:0,0:0:0:0:
209,166,40008,1,8,0:0:0:0:
424,12,40175,1,0,0:0:0:0:
428,320,40341,5,4,0:0:0:0:
428,320,40508,1,0,0:0:0:0:
428,320,40675,1,8,0:0:0:0:
84,64,41008,1,0,0:0:0:0:
144,328,41175,1,8,0:0:0:0:
428,64,41508,1,0,0:0:0:0:
365,324,41675,5,4,0:0:0:0:
153,196,41841,1,0,0:0:0:0:
398,175,42008,1,8,0:0:0:0:
213,337,42175,1,8,0:0:0:0:
268,97,42341,1,8,0:0:0:0:
295,371,42508,1,8,0:0:0:0:
357,94,42675,1,8,0:0:0:0:
123,285,42841,1,8,0:0:0:0:
456,264,43008,6,0,L|464:324,2,45,2|0|0,0:2|0:0|0:0,0:0:0:0:
269,95,43508,2,0,L|274:139,2,45,2|0|0,0:2|0:0|0:0,0:0:0:0:
123,285,44008,2,0,L|131:345,2,45,2|0|0,0:2|0:0|0:0,0:0:0:0:
376,152,44508,2,0,L|381:196,2,45,2|8|0,0:2|0:0|0:0,0:0:0:0:
64,144,45008,6,0,B|88:164|116:164|116:164|156:152,1,90,0|2,0:0|0:2,0:0:0:0:
448,240,45508,2,0,B|424:220|396:220|396:220|356:232,1,90,2|0,0:2|0:0,0:0:0:0:
144,352,46008,1,2,0:2:0:0:
144,352,46341,1,2,0:2:0:0:
304,144,46508,1,0,0:0:0:0:
360,280,46675,1,8,0:0:0:0:
204,228,46841,1,2,0:2:0:0:
447,172,47008,5,2,0:2:0:0:
256,360,47175,1,0,0:0:0:0:
156,112,47341,1,0,0:0:0:0:
280,260,47508,1,2,0:2:0:0:
60,304,47675,1,2,0:2:0:0:
240,76,47841,1,0,0:0:0:0:
356,340,48008,1,2,0:2:0:0:
96,196,48175,1,0,0:0:0:0:
324,44,48341,5,0,0:0:0:0:
184,272,48508,1,2,0:2:0:0:
0,124,48675,1,8,0:0:0:0:
312,136,48841,1,2,0:2:0:0:
112,300,49008,2,0,L|100:356,2,45,2|0|0,0:2|0:0|0:0,0:0:0:0:
184,112,49508,2,0,L|193:68,2,45,2|0|0,0:2|0:0|0:0,0:0:0:0:
380,192,50008,2,0,L|472:208,1,90
276,232,50508,1,2,0:2:0:0:
341,114,50675,2,0,P|377:106|401:110,1,45,2|2,0:2|0:2,0:0:0:0:
284,320,51008,6,0,P|261:319|240:312,1,45,0|2,0:0|0:2,0:0:0:0:
380,192,51341,1,0,0:0:0:0:
154,329,51508,2,0,P|155:293|183:246,1,90,2|0,0:2|0:0,0:0:0:0:
358,55,52008,2,0,P|357:91|329:138,1,90,2|0,0:2|0:0,0:0:0:0:
87,215,52508,2,0,L|30:207,1,45,2|8,0:2|0:0,0:0:0:0:
220,176,52841,6,0,L|230:203,1,22.5,2|0,0:2|0:0,0:0:0:0:
316,229,53008,2,0,L|308:207,1,22.5,2|0,0:2|0:0,0:0:0:0:
151,204,53175,2,0,L|161:231,1,22.5,2|0,0:2|0:0,0:0:0:0:
388,203,53341,2,0,L|380:181,1,22.5,2|0,0:2|0:0,0:0:0:0:
158,126,53508,1,2,0:2:0:0:
256,352,53675,6,0,B|279:359|279:359|307:341|356:351,1,90
256,352,54175,2,0,B|233:359|233:359|205:341|156:351,1,90,2|0,0:2|0:0,0:0:0:0:
396,169,54675,1,8,0:0:0:0:
168,3,54841,1,2,0:2:0:0:
256,272,55008,5,0,0:0:0:0:
343,4,55175,1,0,0:0:0:0:
114,170,55341,1,2,0:2:0:0:
370,86,55508,1,0,0:0:0:0:
140,88,55675,1,0,0:0:0:0:
256,352,55841,1,2,0:2:0:0:
256,60,56008,1,2,0:2:0:0:
88,252,56175,1,0,0:0:0:0:
424,252,56341,6,0,B|445:244|467:251|467:251|488:258|516:248,1,90,2|0,0:2|0:0,0:0:0:0:
88,252,56841,2,0,B|67:244|45:251|45:251|24:258|-4:248,1,90,2|0,0:2|0:0,0:0:0:0:
256,136,57341,1,2,0:2:0:0:
256,352,57508,1,0,0:0:0:0:
376,148,57675,5,0,0:0:0:0:
180,32,57841,1,2,0:2:0:0:
192,260,58008,1,8,0:0:0:0:
332,32,58175,1,2,0:2:0:0:
136,148,58341,1,2,0:2:0:0:
320,260,58508,1,0,0:0:0:0:
256,136,58675,1,2,0:2:0:0:
136,360,58841,1,0,0:0:0:0:
376,360,59008,5,0,0:0:0:0:
256,136,59175,1,2,0:2:0:0:
76,260,59341,1,0,0:0:0:0:
436,260,59508,1,2,0:2:0:0:
300,76,59675,2,0,P|256:60|212:76,1,90,2|0,0:2|0:0,0:0:0:0:
256,244,60175,1,2,0:2:0:0:
384,40,60341,5,8,0:0:0:0:
128,40,60508,1,0,0:0:0:0:
256,324,60675,1,0,0:0:0:0:
372,124,60841,1,0,0:0:0:0:
140,124,61008,1,0,0:0:0:0:
328,284,61175,1,2,0:2:0:0:
180,200,61341,1,2,0:2:0:0:
456,96,61508,1,2,0:2:0:0:
96,204,61675,6,0,L|44:192,1,45,2|0,0:2|0:0,0:0:0:0:
104,216,62175,2,0,L|52:204,1,45,2|0,0:2|0:0,0:0:0:0:
112,228,62675,2,0,L|60:216,1,45,2|0,0:2|0:0,0:0:0:0:
252,340,63008,6,0,L|344:328,1,90,4|0,0:0|0:0,0:0:0:0:
504,144,63508,2,0,L|414:155,1,90
224,188,64008,1,8,0:0:0:0:
344,80,64175,1,8,0:0:0:0:
144,252,64341,6,0,P|96:260|0:176,1,180,6|8,0:0|0:0,0:0:0:0:
248,288,64841,1,2,0:0:0:0:
248,288,64925,1,0,0:0:0:0:
248,288,65008,2,0,P|230:318|175:353,1,90,2|0,0:0|0:0,0:0:0:0:
289,137,65341,2,0,P|375:128|439:188,1,180,10|0,0:0|0:0,0:0:0:0:
204,188,65841,5,2,0:0:0:0:
324,48,66008,2,0,L|524:28,1,180,10|0,0:0|0:0,0:0:0:0:
288,232,66508,1,2,0:0:0:0:
288,232,66591,1,0,0:0:0:0:
288,232,66675,2,0,L|186:243,1,90,10|0,0:0|0:0,0:0:0:0:
120,132,67008,5,0,0:0:0:0:
366,267,67175,2,0,P|447:296|512:240,1,180,2|2,0:0|0:0,0:0:0:0:
194,98,67675,2,0,L|206:198,1,90,2|0,0:0|0:0,0:0:0:0:
484,56,68008,2,0,P|403:27|338:83,1,180,10|0,0:0|0:0,0:0:0:0:
292,308,68508,5,2,0:0:0:0:
418,109,68675,1,8,0:0:0:0:
199,240,68841,1,0,0:0:0:0:
376,360,69008,2,0,L|472:344,1,90,2|0,0:0|0:0,0:0:0:0:
156,336,69341,2,0,L|60:352,1,90,10|0,0:0|0:0,0:0:0:0:
344,208,69675,5,0,0:0:0:0:
184,72,69841,1,2,0:0:0:0:
264,328,70008,1,10,0:0:0:0:
264,56,70175,1,0,0:0:0:0:
88,264,70341,2,0,L|0:278,1,90,2|0,0:0|0:0,0:0:0:0:
236,132,70675,1,10,0:0:0:0:
336,360,70841,6,0,P|428:368|480:292,1,180,2|2,0:0|0:0,0:0:0:0:
200,204,71341,1,10,0:0:0:0:
264,56,71508,1,2,0:0:0:0:
264,328,71675,1,2,0:0:0:0:
320,120,71841,1,0,0:0:0:0:
116,264,72008,1,10,0:0:0:0:
352,40,72175,1,0,0:0:0:0:
104,164,72341,5,0,0:0:0:0:
332,244,72508,2,0,P|404:192|496:228,1,180,2|2,0:0|0:0,0:0:0:0:
192,128,73008,2,0,L|168:28,1,90,2|0,0:0|0:0,0:0:0:0:
311,331,73341,2,0,L|335:231,1,90,10|0,0:0|0:0,0:0:0:0:
376,80,73675,5,2,0:0:0:0:
136,304,73841,1,2,0:0:0:0:
256,192,74008,1,10,0:0:0:0:
52,280,74175,2,0,L|0:272,1,45
196,248,74341,2,0,L|240:254,1,45,8|0,0:0|0:0,0:0:0:0:
56,184,74508,2,0,L|4:176,1,45
312,136,74675,2,0,L|356:142,1,45,8|0,0:0|0:0,0:0:0:0:
62,85,74841,2,0,L|10:77,1,45
232,116,75008,6,0,P|259:71|383:96,1,180,6|8,0:0|0:0,0:0:0:0:
275,268,75508,2,0,P|248:313|124:288,1,180,2|0,0:0|0:0,0:0:0:0:
338,220,76008,2,0,B|378:196|424:214|424:214|476:235|518:211,1,180,10|0,0:0|0:0,0:0:0:0:
174,220,76508,6,0,B|134:196|88:214|88:214|36:235|-6:211,1,180,2|0,0:0|0:0,0:0:0:0:
364,84,77008,1,2,0:0:0:0:
148,84,77175,1,2,0:0:0:0:
148,84,77258,1,0,0:0:0:0:
148,84,77341,1,8,0:0:0:0:
256,308,77508,1,0,0:0:0:0:
456,108,77675,6,0,L|272:60,1,180,2|8,0:0|0:0,0:0:0:0:
68,240,78175,1,2,0:0:0:0:
175,222,78341,2,0,L|287:206,1,90,2|0,0:0|0:0,0:0:0:0:
136,316,78675,1,10,0:0:0:0:
352,160,78841,6,0,P|308:120|192:136,1,180,2|0,0:0|0:0,0:0:0:0:
344,252,79341,1,10,0:0:0:0:
396,56,79508,1,2,0:0:0:0:
432,288,79675,1,2,0:0:0:0:
200,340,79841,1,2,0:0:0:0:
432,200,80008,6,0,P|384:220|272:160,1,180,10|0,0:0|0:0,0:0:0:0:
192,16,80508,1,2,0:0:0:0:
136,264,80675,2,0,L|116:364,1,90,10|0,0:0|0:0,0:0:0:0:
276,168,81008,2,0,L|293:79,1,90,2|0,0:0|0:0,0:0:0:0:
312,332,81341,1,10,0:0:0:0:
120,152,81508,6,2,P|104:88|168:132,1,180
292,252,82008,1,8,0:0:0:0:
420,76,82175,1,2,0:0:0:0:
380,272,82341,1,2,0:0:0:0:
144,228,82508,1,0,0:0:0:0:
396,176,82675,2,0,L|496:192,1,90,10|0,0:0|0:0,0:0:0:0:
116,208,83008,6,0,L|16:192,1,90,2|0,0:0|0:0,0:0:0:0:
256,356,83341,1,10,0:0:0:0:
408,128,83508,2,0,L|496:113,1,90,2|0,0:0|0:0,0:0:0:0:
104,128,83841,2,0,L|15:113,1,90,2|8,0:0|0:0,0:0:0:0:
256,28,84175,1,0,0:0:0:0:
255,286,84341,5,4,0:0:0:0:
200,115,84508,1,0,0:0:0:0:
345,221,84675,1,0,0:0:0:0:
166,221,84841,1,0,0:0:0:0:
311,115,85008,1,0,0:0:0:0:
256,192,85175,1,0,0:0:0:0:
256,192,85258,1,0,0:0:0:0:
256,192,85341,1,8,0:0:0:0:
472,256,85508,1,0,0:0:0:0:
40,128,85675,5,4,0:0:0:0:
136,136,96341,5,0,0:0:0:0:
148,172,96425,1,0,0:0:0:0:
160,204,96508,1,0,0:0:0:0:
332,48,96675,1,8,0:0:0:0:
320,84,96758,1,0,0:0:0:0:
308,116,96841,1,0,0:0:0:0:
212,292,97008,1,8,0:0:0:0:
372,176,97175,1,8,0:0:0:0:
104,60,97341,1,0,0:0:0:0:
288,228,97508,1,0,0:0:0:0:
48,124,97675,5,8,0:0:0:0:
136,348,97841,1,8,0:0:0:0:
240,136,98008,2,0,L|272:48,1,90,0|8,0:0|0:0,0:0:0:0:
160,184,98258,1,0,0:0:0:0:
160,184,98341,2,0,L|129:268,1,90,0|8,0:0|0:0,0:0:0:0:
376,260,98675,1,8,0:0:0:0:
156,92,98841,1,8,0:0:0:0:
136,348,99008,5,0,0:0:0:0:
324,176,99175,1,8,0:0:0:0:
72,52,99341,1,0,0:0:0:0:
268,256,99508,1,8,0:0:0:0:
382,94,99675,1,8,0:0:0:0:
401,65,99758,1,0,0:0:0:0:
421,37,99841,1,8,0:0:0:0:
204,184,100008,1,2,0:0:0:0:
508,132,100175,1,8,0:0:0:0:
508,132,100258,1,0,0:0:0:0:
508,132,100341,5,8,0:0:0:0:
228,24,100508,1,2,0:0:0:0:
272,336,100675,1,8,0:0:0:0:
272,336,100758,1,0,0:0:0:0:
272,336,100841,1,8,0:0:0:0:
308,168,101008,1,2,0:0:0:0:
100,196,101175,1,8,0:0:0:0:
64,200,101258,1,0,0:0:0:0:
28,204,101341,1,8,0:0:0:0:
260,100,101508,1,8,0:0:0:0:
188,364,101675,5,0,1:0:0:0:
364,232,101841,1,8,0:0:0:0:
176,128,102008,1,0,1:0:0:0:
412,188,102175,1,0,0:0:0:0:
448,184,102258,1,0,0:0:0:0:
484,180,102341,1,0,1:0:0:0:
244,192,102508,1,0,0:0:0:0:
432,60,102675,2,0,L|342:71,1,90,0|8,1:0|0:0,0:0:0:0:
184,40,102925,1,0,0:0:0:0:
184,40,103008,6,0,L|94:51,1,90,0|8,1:0|0:0,0:0:0:0:
308,292,103341,2,0,L|398:281,1,90,0|8,1:0|0:0,0:0:0:0:
120,132,103675,2,0,L|30:143,1,90,0|8,1:0|0:0,0:0:0:0:
344,140,104008,1,0,1:0:0:0:
378,138,104091,1,0,0:0:0:0:
414,134,104175,1,8,0:0:0:0:
208,208,104341,5,0,1:0:0:0:
312,20,104508,1,8,0:0:0:0:
308,292,104675,1,0,1:0:0:0:
274,294,104758,1,0,0:0:0:0:
238,298,104841,1,8,0:0:0:0:
472,196,105008,1,0,1:0:0:0:
176,108,105175,1,8,0:0:0:0:
144,308,105341,1,0,1:0:0:0:
244,60,105508,2,0,L|256:8,1,45,8|2,0:0|0:0,0:0:0:0:
284,180,105675,5,0,1:0:0:0:
72,248,105841,1,4,0:3:0:0:
200,368,106008,1,0,1:0:0:0:
313,96,106175,1,8,0:0:0:0:
321,60,106258,1,4,0:3:0:0:
329,24,106341,1,0,1:0:0:0:
376,256,106508,1,0,1:0:0:0:
184,212,106675,2,0,L|128:196,1,45,2|0,0:1|0:0,0:0:0:0:
272,316,106841,2,0,L|328:300,1,45,2|0,0:1|0:0,0:0:0:0:
204,120,107008,6,0,L|112:92,1,90,4|0,1:2|0:0,0:0:0:0:
272,316,107341,1,8,0:0:0:0:
428,132,107508,1,0,0:0:0:0:
464,128,107591,1,0,0:0:0:0:
500,124,107675,1,0,0:0:0:0:
216,36,107841,2,0,L|152:24,1,45
272,188,108008,2,0,L|316:179,1,45,8|0,0:0|0:0,0:0:0:0:
108,152,108175,1,0,0:0:0:0:
348,252,108341,6,0,L|440:232,1,90,0|0,1:0|0:0,0:0:0:0:
184,176,108675,1,8,0:0:0:0:
232,368,108841,1,0,0:0:0:0:
232,368,108925,1,0,0:0:0:0:
232,368,109008,1,0,0:0:0:0:
360,156,109175,2,0,L|336:88,1,45
212,260,109341,2,0,L|197:302,1,45,8|0,0:0|0:0,0:0:0:0:
316,48,109508,1,0,0:0:0:0:
128,244,109675,6,0,L|24:228,1,90,0|0,1:0|0:0,0:0:0:0:
224,104,110008,1,8,0:0:0:0:
304,328,110175,1,0,0:0:0:0:
448,180,110341,1,0,0:0:0:0:
176,176,110508,2,0,L|112:164,1,45
336,208,110675,2,0,L|400:220,1,45,8|0,0:0|0:0,0:0:0:0:
224,104,110841,1,0,0:0:0:0:
232,372,111008,5,0,1:0:0:0:
380,136,111175,1,0,0:0:0:0:
120,64,111341,1,8,0:0:0:0:
184,296,111508,1,0,0:0:0:0:
320,44,111675,1,0,0:0:0:0:
288,256,111841,2,0,L|280:308,1,45,0|0,0:0|0:0,0:0:0:0:
384,320,112008,2,0,L|395:371,1,45,8|0,0:0|0:0,0:0:0:0:
448,216,112175,2,0,L|476:259,1,45,0|0,0:0|0:0,0:0:0:0:
480,72,112341,5,0,1:0:0:0:
444,60,112425,1,0,0:0:0:0:
409,48,112508,1,0,0:0:0:0:
216,192,112675,1,8,0:0:0:0:
384,144,112841,1,0,0:0:0:0:
264,352,113008,1,0,0:0:0:0:
188,96,113175,2,0,L|140:84,1,45
341,155,113341,2,0,L|384:144,1,45,8|0,0:0|0:0,0:0:0:0:
128,216,113508,1,0,0:0:0:0:
296,36,113675,5,0,1:0:0:0:
316,280,113841,2,0,L|368:268,1,45
184,336,114008,2,0,L|140:346,1,45,8|0,0:0|0:0,0:0:0:0:
276,176,114175,1,0,0:0:0:0:
352,368,114341,1,0,0:0:0:0:
128,216,114508,2,0,L|60:204,1,45
276,176,114675,2,0,L|321:184,1,45,8|0,0:0|0:0,0:0:0:0:
112,48,114841,1,0,0:0:0:0:
220,252,115008,5,0,1:0:0:0:
352,48,115175,1,0,0:0:0:0:
428,324,115341,1,8,0:0:0:0:
188,144,115508,1,0,0:0:0:0:
444,108,115675,1,0,0:0:0:0:
328,288,115841,2,0,L|312:336,1,45
184,96,116008,2,0,L|200:48,1,45,8|0,0:0|0:0,0:0:0:0:
256,192,116175,1,0,0:0:0:0:
196,344,116341,5,0,1:0:0:0:
316,40,116508,1,0,0:0:0:0:
104,216,116675,1,8,0:0:0:0:
88,212,116758,1,0,0:0:0:0:
72,208,116841,1,8,0:0:0:0:
56,204,116925,1,0,0:0:0:0:
40,200,117008,5,8,0:0:0:0:
80,188,117091,1,0,0:0:0:0:
120,176,117175,1,8,0:0:0:0:
156,164,117258,1,0,0:0:0:0:
192,152,117341,1,8,0:0:0:0:
232,140,117425,1,8,0:0:0:0:
268,128,117508,1,8,0:0:0:0:
304,112,117591,1,8,0:0:0:0:
344,100,117675,6,0,L|400:120,1,45,12|0,0:0|0:0,0:0:0:0:
168,284,117841,2,0,L|112:264,1,45
380,256,118008,2,0,L|360:304,1,45,8|0,0:0|0:0,0:0:0:0:
132,128,118175,2,0,L|152:80,1,45,8|0,0:0|0:0,0:0:0:0:
272,276,118341,2,0,L|244:368,1,90,8|0,0:0|0:0,0:0:0:0:
372,160,118591,1,0,0:0:0:0:
372,160,118675,2,0,L|388:216,1,45,8|0,0:0|0:0,0:0:0:0:
228,112,118841,2,0,L|215:68,1,45,8|0,0:0|0:0,0:0:0:0:
84,304,119008,6,0,L|71:347,1,45
304,200,119175,2,0,L|291:156,1,45,8|0,0:0|0:0,0:0:0:0:
495,223,119341,2,0,L|508:267,1,45,8|0,0:0|0:0,0:0:0:0:
380,256,119508,2,0,L|393:300,1,45,8|0,0:0|0:0,0:0:0:0:
88,228,119675,2,0,L|75:184,1,45,8|0,0:0|0:0,0:0:0:0:
203,195,119841,2,0,L|190:151,1,45,8|0,0:0|0:0,0:0:0:0:
308,56,120008,2,0,L|360:64,1,45,8|0,0:0|0:0,0:0:0:0:
204,328,120175,2,0,L|152:320,1,45,8|0,0:0|0:0,0:0:0:0:
304,200,120341,6,0,L|320:300,1,90,8|0,0:0|0:0,0:0:0:0:
400,128,120591,1,0,0:0:0:0:
400,128,120675,2,0,L|412:180,1,45,8|0,0:0|0:0,0:0:0:0:
180,128,120841,2,0,L|169:84,1,45,8|0,0:0|0:0,0:0:0:0:
144,288,121008,2,0,L|133:332,1,45,8|0,0:0|0:0,0:0:0:0:
256,83,121175,2,0,L|245:39,1,45
64,236,121341,2,0,L|53:280,1,45,8|0,0:0|0:0,0:0:0:0:
252,168,121508,1,0,0:0:0:0:
476,68,121675,6,0,L|488:116,1,45,8|0,0:0|0:0,0:0:0:0:
376,276,121841,1,8,0:0:0:0:
388,240,121925,1,0,0:0:0:0:
400,208,122008,2,0,L|460:196,1,45,8|0,0:0|0:0,0:0:0:0:
353,373,122175,1,8,0:0:0:0:
329,345,122258,1,0,0:0:0:0:
309,317,122341,2,0,L|249:305,1,45,8|0,0:0|0:0,0:0:0:0:
124,212,122508,2,0,L|168:220,1,45,8|0,0:0|0:0,0:0:0:0:
372,124,122675,1,8,0:0:0:0:
336,132,122758,1,8,0:0:0:0:
300,140,122841,1,8,0:0:0:0:
264,148,122925,1,8,0:0:0:0:
228,156,123008,6,0,L|183:147,1,45,4|0,0:0|0:0,0:0:0:0:
20,264,123175,2,0,L|64:272,1,45,0|0,0:0|0:0,0:0:0:0:
208,72,123341,2,0,P|155:72|120:100,1,90,8|8,0:0|0:0,0:0:0:0:
124,212,123591,1,0,0:0:0:0:
124,212,123675,2,0,L|169:221,1,45,8|0,0:0|0:0,0:0:0:0:
388,212,123841,2,0,L|343:221,1,45,0|0,0:0|0:0,0:0:0:0:
256,336,124008,1,8,0:0:0:0:
256,324,124091,1,0,0:0:0:0:
256,312,124175,1,0,0:0:0:0:
256,300,124258,1,0,0:0:0:0:
256,288,124341,6,0,L|304:280,1,45,8|0,0:0|0:0,0:0:0:0:
256,96,124508,2,0,L|208:104,1,45
440,152,124675,2,0,L|424:96,1,45,8|0,0:0|0:0,0:0:0:0:
72,232,124841,2,0,L|88:288,1,45,8|0,0:0|0:0,0:0:0:0:
256,192,125008,6,0,L|304:192,1,45,8|0,0:0|0:0,0:0:0:0:
256,192,125175,2,0,L|256:124,1,45,8|0,0:0|0:0,0:0:0:0:
256,192,125341,2,0,L|204:192,1,45,8|0,0:0|0:0,0:0:0:0:
256,192,125508,2,0,L|256:248,1,45,8|0,0:0|0:0,0:0:0:0:
129,295,125675,6,0,L|185:315,1,45,8|0,0:0|0:0,0:0:0:0:
383,89,125841,2,0,L|327:69,1,45,8|0,0:0|0:0,0:0:0:0:
128,100,126008,2,0,L|117:120,2,22.5,8|0|0,0:0|0:0|0:0,0:0:0:0:
360,276,126175,2,0,L|384:225,1,45,8|0,0:0|0:0,0:0:0:0:
220,56,126341,2,0,L|214:33,2,22.5,8|0|0,0:0|0:0|0:0,0:0:0:0:
277,292,126508,2,0,L|288:336,1,45,8|0,0:0|0:0,0:0:0:0:
305,54,126675,6,0,L|311:31,2,22.5,8|0|0,0:0|0:0|0:0,0:0:0:0:
160,244,126841,2,0,L|96:252,1,45,8|0,0:0|0:0,0:0:0:0:
361,207,127008,2,0,L|384:204,2,22.5,8|0|0,0:0|0:0|0:0,0:0:0:0:
120,160,127175,2,0,L|56:168,1,45
368,108,127341,2,0,L|390:104,6,22.5,8|0|0|0|0|0|0,0:0|0:0|0:0|0:0|0:0|0:0|0:0,0:0:0:0:
460,80,127675,6,0,L|480:0,1,76.5000014591217,2|0,0:0|0:0,0:0:0:0:
52,304,127841,2,0,L|32:384,1,76.5000014591217,2|0,0:0|0:0,0:0:0:0:
256,192,128008,1,14,0:0:0:0:
256,192,128341,6,0,L|104:168,1,153.000002918243,4|0,0:0|0:0,0:0:0:0:
436,168,128675,1,8,0:0:0:0:
220,332,128841,1,0,0:0:0:0:
176,324,128925,1,0,0:0:0:0:
132,316,129008,1,0,0:0:0:0:
340,104,129175,1,0,0:0:0:0:
260,268,129341,2,0,L|176:252,1,76.5000014591217,8|0,0:0|0:0,0:0:0:0:
64,80,129508,2,0,L|148:96,1,76.5000014591217
435,65,129675,6,0,P|380:12|300:10,1,153.000002918243
77,319,130008,2,0,P|132:372|212:374,1,153.000002918243,8|0,0:0|0:0,0:0:0:0:
448,208,130258,1,0,0:0:0:0:
448,208,130341,2,0,L|344:192,1,76.5000014591217
64,176,130508,2,0,L|168:192,1,76.5000014591217
256,44,130675,1,8,0:0:0:0:
256,340,130841,1,0,0:0:0:0:
344,120,131008,6,0,B|360:64|420:56|420:56|484:72,1,153.000002918243
168,264,131341,2,0,B|152:320|92:328|92:328|28:312,1,153.000002918243,8|0,0:0|0:0,0:0:0:0:
8,292,131591,1,0,0:0:0:0:
4,244,131675,2,0,P|16:204|48:176,1,76.5000014591217
332,160,131841,2,0,P|320:200|288:228,1,76.5000014591217
176,64,132008,1,8,0:0:0:0:
376,320,132175,1,0,0:0:0:0:
444,56,132341,6,0,L|424:216,1,153.000002918243
68,328,132675,2,0,L|88:168,1,153.000002918243,8|0,0:0|0:0,0:0:0:0:
116,140,132925,1,0,0:0:0:0:
160,132,133008,2,0,L|248:148,1,76.5000014591217
352,252,133175,2,0,L|264:236,1,76.5000014591217
176,64,133341,2,0,L|260:80,1,76.5000014591217,8|0,0:0|0:0,0:0:0:0:
336,320,133508,2,0,L|252:304,1,76.5000014591217,8|0,0:0|0:0,0:0:0:0:
16,232,133675,5,0,0:0:0:0:
336,132,133841,2,0,L|424:112,1,76.5000014591217
176,252,134008,2,0,L|88:272,1,76.5000014591217,8|0,0:0|0:0,0:0:0:0:
192,104,134175,2,0,L|209:29,1,76.5000014591217,0|0,0:0|0:0,0:0:0:0:
320,280,134341,2,0,L|302:354,1,76.5000014591217,0|0,0:0|0:0,0:0:0:0:
256,192,134508,1,0,0:0:0:0:
512,56,134675,2,0,B|456:20|408:36|408:36|376:72,1,153.000002918243,8|0,0:0|0:0,0:0:0:0:
364,112,134925,1,0,0:0:0:0:
384,152,135008,6,0,L|457:171,1,76.5000014591217
128,232,135175,1,0,0:0:0:0:
128,232,135258,1,0,0:0:0:0:
128,232,135341,2,0,L|54:212,1,76.5000014591217,8|0,0:0|0:0,0:0:0:0:
348,236,135508,2,0,L|320:324,1,76.5000014591217
164,148,135675,2,0,L|192:60,1,76.5000014591217
185,306,135841,2,0,P|145:326|105:322,1,76.5000014591217
327,78,136008,2,0,P|367:58|407:62,1,76.5000014591217,8|0,0:0|0:0,0:0:0:0:
496,208,136175,1,0,0:0:0:0:
240,356,136341,6,0,L|84:328,1,153.000002918243
272,28,136675,2,0,L|428:56,1,153.000002918243,8|0,0:0|0:0,0:0:0:0:
128,232,136925,1,0,0:0:0:0:
128,232,137008,2,0,L|52:217,1,76.5000014591217
384,152,137175,2,0,L|459:166,1,76.5000014591217
256,192,137341,2,0,P|200:140|204:56,1,153.000002918243,8|0,0:0|0:0,0:0:0:0:
332,224,137591,1,0,0:0:0:0:
332,224,137675,6,0,P|283:270|192:244,1,153.000002918243
424,72,138008,1,8,0:0:0:0:
444,332,138175,1,0,0:0:0:0:
444,332,138258,1,0,0:0:0:0:
444,332,138341,2,0,L|464:256,3,76.5000014591217
480,144,138675,1,8,0:0:0:0:
452,116,138758,1,0,0:0:0:0:
416,104,138841,1,0,0:0:0:0:
376,104,138925,1,0,0:0:0:0:
336,112,139008,6,0,B|296:136|240:128|240:128|204:96,1,135,2|0,0:2|0:0,0:0:0:0:
278,53,139341,6,0,P|290:135|237:183,1,153.000002918243,12|0,0:0|0:0,0:0:0:0:
136,232,139591,1,0,0:0:0:0:
136,232,139675,2,0,L|100:324,1,76.5000014591217
376,232,139841,2,0,L|412:324,1,76.5000014591217
256,364,140008,2,0,L|256:276,1,76.5000014591217,8|0,0:0|0:0,0:0:0:0:
176,120,140175,1,0,0:0:0:0:
132,104,140258,1,0,0:0:0:0:
88,128,140341,6,0,L|24:288,1,153.000002918243
480,270,140675,2,0,L|424:128,1,153.000002918243,8|0,0:0|0:0,0:0:0:0:
352,8,140925,1,0,0:0:0:0:
352,8,141008,2,0,L|332:96,1,76.5000014591217
216,288,141175,2,0,L|232:213,1,76.5000014591217
480,270,141341,2,0,L|460:358,1,76.5000014591217,8|0,0:0|0:0,0:0:0:0:
136,264,141508,2,0,L|152:189,1,76.5000014591217,0|0,0:0|0:0,0:0:0:0:
192,44,141675,6,0,B|236:28|265:40|265:40|299:56|340:40,1,153.000002918243
320,340,142008,2,0,B|276:356|247:344|247:344|213:328|172:344,1,153.000002918243,8|0,0:0|0:0,0:0:0:0:
72,376,142258,1,0,0:0:0:0:
72,376,142341,2,0,P|84:288|104:260,1,76.5000014591217
288,136,142508,2,0,P|296:173|294:211,1,76.5000014591217
192,44,142675,1,8,0:0:0:0:
405,281,142841,2,0,L|489:269,1,76.5000014591217
288,240,143008,6,0,L|136:262,1,153.000002918243
360,172,143258,2,0,L|512:150,1,153.000002918243
228,152,143508,2,0,P|184:152|152:128,1,76.5000014591217
340,8,143675,1,0,0:0:0:0:
352,52,143758,1,0,0:0:0:0:
328,92,143841,2,0,L|236:76,1,76.5000014591217
28,184,144008,2,0,L|103:197,1,76.5000014591217,8|0,0:0|0:0,0:0:0:0:
288,240,144175,1,0,0:0:0:0:
244,240,144258,1,0,0:0:0:0:
204,260,144341,6,0,P|184:304|184:352,1,76.5000014591217
330,331,144508,2,0,P|325:293|308:260,1,76.5000014591217,0|0,0:0|0:0,0:0:0:0:
120,224,144675,2,0,L|88:316,1,76.5000014591217,8|0,0:0|0:0,0:0:0:0:
417,296,144841,2,0,L|392:224,1,76.5000014591217
188,64,145008,2,0,P|256:36|328:68,1,153.000002918243,0|0,0:0|0:0,0:0:0:0:
325,318,145341,2,0,P|257:347|188:320,1,153.000002918243,8|0,0:0|0:0,0:0:0:0:
120,224,145591,1,0,0:0:0:0:
120,224,145675,6,0,B|80:216|80:216|40:228,1,76.5000014591217
292,152,145841,1,0,0:0:0:0:
292,152,145925,1,0,0:0:0:0:
292,152,146008,2,0,B|332:160|332:160|372:148,1,76.5000014591217,8|0,0:0|0:0,0:0:0:0:
188,64,146175,2,0,B|148:56|148:56|108:68,1,76.5000014591217,0|0,0:0|0:0,0:0:0:0:
240,228,146341,2,0,L|420:252,1,153.000002918243
293,280,146591,2,0,P|235:302|167:241,1,153.000002918243
284,80,146841,2,0,P|332:88|356:124,1,76.5000014591217
352,332,147008,5,0,0:0:0:0:
320,352,147091,1,0,0:0:0:0:
284,372,147175,1,0,0:0:0:0:
456,252,147341,1,8,0:0:0:0:
176,176,147508,1,0,0:0:0:0:
404,88,147675,2,0,L|480:64,1,76.5000014591217
108,88,147841,2,0,L|32:64,1,76.5000014591217
332,192,148008,2,0,L|408:168,1,76.5000014591217,8|0,0:0|0:0,0:0:0:0:
180,192,148175,2,0,L|104:168,1,76.5000014591217,0|0,0:0|0:0,0:0:0:0:
256,296,148341,5,0,0:0:0:0:
256,88,148508,1,0,0:0:0:0:
108,312,148675,1,8,0:0:0:0:
404,72,148841,1,0,0:0:0:0:
108,72,149008,1,8,0:0:0:0:
404,312,149175,1,0,0:0:0:0:
256,192,149341,1,8,0:0:0:0:
252,184,149425,1,0,0:0:0:0:
248,176,149508,1,0,0:0:0:0:
244,168,149591,1,0,0:0:0:0:
240,160,149675,6,0,L|72:120,1,153.000002918243,6|0,0:0|0:0,0:0:0:0:
308,348,150008,1,8,0:0:0:0:
468,200,150175,2,0,P|480:140|440:52,1,153.000002918243,2|2,0:0|0:0,0:0:0:0:
66,57,150508,2,0,P|33:125|44:200,1,153.000002918243,0|8,0:0|0:0,0:0:0:0:
216,352,150841,1,2,0:0:0:0:
228,308,150925,1,0,0:0:0:0:
244,264,151008,6,0,L|400:284,1,153.000002918243,2|0,0:0|0:0,0:0:0:0:
448,48,151341,2,0,L|292:28,1,153.000002918243,10|0,0:0|0:0,0:0:0:0:
121,278,151675,1,0,0:0:0:0:
338,243,151841,1,0,0:0:0:0:
297,28,152008,1,10,0:0:0:0:
80,63,152175,1,0,0:0:0:0:
449,204,152341,6,0,L|485:53,1,153.000002918243
208,169,152675,1,10,0:0:0:0:
428,307,152841,1,0,0:0:0:0:
428,307,152925,1,0,0:0:0:0:
428,307,153008,1,2,0:0:0:0:
254,97,153175,1,0,0:0:0:0:
272,373,153341,1,8,0:0:0:0:
178,57,153508,1,0,0:0:0:0:
242,279,153675,6,0,L|399:263,1,153.000002918243,2|0,0:0|0:0,0:0:0:0:
208,169,154008,1,10,0:0:0:0:
141,370,154175,1,0,0:0:0:0:
254,97,154341,1,2,0:0:0:0:
1,171,154508,1,0,0:0:0:0:
317,165,154675,2,0,L|426:175,1,76.5000014591217,10|0,0:0|0:0,0:0:0:0:
155,95,154841,2,0,L|78:88,1,76.5000014591217,8|0,0:0|0:0,0:0:0:0:
342,63,155008,5,0,0:0:0:0:
416,240,155175,1,0,0:0:0:0:
116,176,155341,1,10,0:0:0:0:
424,124,155508,1,0,0:0:0:0:
424,124,155591,1,0,0:0:0:0:
424,124,155675,1,0,0:0:0:0:
392,356,155841,1,0,0:0:0:0:
448,32,156008,2,0,L|284:16,1,153.000002918243,10|0,0:0|0:0,0:0:0:0:
68,352,156341,6,0,L|160:364,1,76.5000014591217,2|0,0:0|0:0,0:0:0:0:
328,276,156508,2,0,L|252:266,1,76.5000014591217,0|0,0:0|0:0,0:0:0:0:
64,232,156675,1,10,0:0:0:0:
280,104,156841,1,0,0:0:0:0:
432,256,157008,1,2,0:0:0:0:
236,32,157175,1,0,0:0:0:0:
268,352,157341,1,10,0:0:0:0:
496,112,157508,1,0,0:0:0:0:
192,104,157675,5,0,0:0:0:0:
368,360,157841,1,0,0:0:0:0:
368,360,157925,1,0,0:0:0:0:
368,360,158008,1,10,0:0:0:0:
320,32,158175,1,0,0:0:0:0:
196,296,158341,1,0,0:0:0:0:
472,184,158508,1,0,0:0:0:0:
152,168,158675,2,0,L|-4:148,1,153.000002918243,10|0,0:0|0:0,0:0:0:0:
288,128,158925,1,0,0:0:0:0:
288,128,159008,6,0,L|439:147,1,153.000002918243,0|0,0:0|0:0,0:0:0:0:
136,344,159341,2,0,B|88:368|32:348|32:348|0:312,1,153.000002918243,10|0,0:0|0:0,0:0:0:0:
282,52,159675,2,0,L|290:140,1,76.5000014591217
230,332,159841,2,0,L|222:244,1,76.5000014591217
388,204,160008,1,10,0:0:0:0:
404,208,160091,1,0,0:0:0:0:
420,212,160175,1,2,0:0:0:0:
436,216,160258,1,0,0:0:0:0:
452,220,160341,6,0,P|384:244|300:220,1,153.000002918243,6|0,0:0|0:0,0:0:0:0:
60,164,160675,2,0,P|128:140|212:164,1,153.000002918243,10|0,0:0|0:0,0:0:0:0:
260,364,161008,1,2,0:0:0:0:
260,20,161175,1,0,0:0:0:0:
451,163,161341,1,8,0:0:0:0:
60,164,161508,1,0,0:0:0:0:
76,200,161591,1,0,0:0:0:0:
92,236,161675,5,0,0:0:0:0:
156,24,161841,1,2,0:0:0:0:
168,352,162008,1,10,0:0:0:0:
216,104,162175,1,0,0:0:0:0:
204,140,162258,1,0,0:0:0:0:
192,176,162341,1,2,0:0:0:0:
360,312,162508,1,0,0:0:0:0:
128,116,162675,1,10,0:0:0:0:
412,44,162841,1,2,0:0:0:0:
144,264,163008,5,2,0:0:0:0:
392,168,163175,1,0,0:0:0:0:
156,24,163341,1,10,0:0:0:0:
200,324,163508,1,0,0:0:0:0:
216,288,163591,1,0,0:0:0:0:
232,252,163675,1,2,0:0:0:0:
248,84,163841,1,0,0:0:0:0:
485,236,164008,2,0,P|437:274|336:272,1,153.000002918243,10|2,0:0|0:0,0:0:0:0:
27,148,164341,6,0,P|75:110|176:112,1,153.000002918243,0|0,0:0|0:0,0:0:0:0:
334,322,164675,1,8,0:0:0:0:
404,80,164841,1,0,0:0:0:0:
203,237,165008,1,0,0:0:0:0:
458,225,165175,1,0,0:0:0:0:
256,84,165341,2,0,P|204:100|148:92,1,76.5000014591217,10|0,0:0|0:0,0:0:0:0:
256,300,165508,2,0,P|308:284|364:292,1,76.5000014591217,10|0,0:0|0:0,0:0:0:0:
492,364,165675,5,2,0:0:0:0:
256,192,165841,1,0,0:0:0:0:
136,344,166008,1,8,0:0:0:0:
308,124,166175,1,0,0:0:0:0:
56,92,166341,1,0,0:0:0:0:
348,204,166508,1,2,0:0:0:0:
256,16,166675,1,10,0:0:0:0:
256,368,166841,1,2,0:0:0:0:
392,132,167008,6,2,P|452:124|464:40,1,153.000002918243
45,43,167341,2,0,P|50:114|119:132,1,153.000002918243,8|0,0:0|0:0,0:0:0:0:
256,300,167675,1,0,0:0:0:0:
416,100,167841,1,2,0:0:0:0:
96,100,168008,1,8,0:0:0:0:
256,368,168175,1,2,0:0:0:0:
416,216,168341,5,0,0:0:0:0:
96,216,168508,1,0,0:0:0:0:
504,168,168675,2,0,L|468:16,1,153.000002918243,10|0,0:0|0:0,0:0:0:0:
43,19,169008,2,0,L|8:168,1,153.000002918243,0|2,0:0|0:0,0:0:0:0:
176,300,169341,1,8,0:0:0:0:
388,112,169508,1,0,0:0:0:0:
492,368,169675,5,0,0:0:0:0:
228,152,169841,1,0,0:0:0:0:
52,176,170008,6,0,L|32:268,1,80.9999975280763,8|0,0:0|0:0,0:0:0:0:
208,120,170175,2,0,L|225:40,1,80.9999975280763
328,276,170341,6,0,L|348:360,1,85.4999977169037,8|0,0:0|0:0,0:0:0:0:
476,84,170508,2,0,L|457:1,1,85.4999977169037
305,349,170675,6,0,L|216:360,1,90,8|0,0:0|0:0,0:0:0:0:
206,34,170841,2,0,L|296:24,1,90,8|0,0:0|0:0,0:0:0:0:
256,192,171008,5,4,0:0:0:0:
