osu file format v14

[General]
AudioFilename: 06 perthed again (yambabom remix).mp3
AudioLeadIn: 0
PreviewTime: 106997
Countdown: 0
SampleSet: Normal
StackLeniency: 0.7
Mode: 0
LetterboxInBreaks: 0
WidescreenStoryboard: 0

[Editor]
Bookmarks: 331,42997,85664,96330,149664
DistanceSpacing: 1.3
BeatDivisor: 4
GridSize: 4
TimelineZoom: 1.8

[Metadata]
Title:perthed again (yambabom remix)
TitleUnicode:perthed again (yambabom remix)
Artist:Hitori Tori
ArtistUnicode:Hitori Tori
Creator:Asphyxia
Version:Advanced
Source:
Tags:breakcore collab collaboration Zapy ktgster Frey Irreversible Aka
BeatmapID:676920
BeatmapSetID:268693

[Difficulty]
HPDrainRate:5
CircleSize:3.7
OverallDifficulty:6
ApproachRate:6.5
SliderMultiplier:1.15
SliderTickRate:2

[Events]
//Background and Video events
0,0,"uh.png",0,0
//Break Periods
2,85875,95366
//Storyboard Layer 0 (Background)
//Storyboard Layer 1 (Fail)
//Storyboard Layer 2 (Pass)
//Storyboard Layer 3 (Foreground)
//Storyboard Sound Samples

[TimingPoints]
342,333.333333333333,4,1,0,50,1,0
11008,-100,4,1,0,60,0,0
21675,-100,4,1,0,70,0,0
32675,-100,4,1,0,70,0,1
32758,-100,4,1,0,70,0,0
43008,-100,4,1,0,50,0,0
52925,-100,4,1,0,20,0,0
53008,-100,4,1,0,50,0,0
53091,-100,4,1,0,20,0,0
53175,-100,4,1,0,50,0,0
53258,-100,4,1,0,20,0,0
53341,-100,4,1,0,50,0,0
53425,-100,4,1,0,20,0,0
53508,-100,4,1,0,50,0,0
64341,-100,4,1,0,60,0,0
64841,-100,4,1,1,60,0,0
74258,-100,4,1,0,20,0,0
74341,-100,4,1,0,60,0,0
74425,-100,4,1,0,20,0,0
74508,-100,4,1,0,60,0,0
74591,-100,4,1,0,20,0,0
74675,-100,4,1,0,60,0,0
74758,-100,4,1,0,20,0,0
74841,-100,4,1,0,60,0,0
74925,-100,4,1,0,20,0,0
75008,-100,4,1,1,60,0,0
81508,-100,4,1,0,60,0,0
82008,-100,4,1,1,60,0,0
85675,-100,4,2,0,70,0,0
107008,-100,4,2,0,80,0,1
107091,-100,4,2,0,80,0,0
117675,-100,4,2,0,80,0,1
117758,-100,4,2,0,80,0,0
127675,-100,4,2,0,80,0,0
128008,-100,4,2,0,90,0,0
128341,-100,4,1,0,80,0,1
139008,-100,4,1,0,60,0,0
139341,-100,4,1,0,80,0,1
149341,-100,4,1,0,85,0,1
149591,-100,4,1,0,60,0,0
149675,-100,4,1,0,85,0,1
170341,-100,4,1,0,90,0,1
170675,-100,4,1,0,90,0,1
171008,-100,4,1,0,80,0,0

[Colours]
Combo1 : 255,0,0
Combo2 : 255,128,64

[HitObjects]
180,256,342,6,0,B|107:250|107:250|3:284,2,172.5,4|0|0,0:0|0:0|0:0,0:0:0:0:
246,290,1508,1,2,0:0:0:0:
288,228,1675,2,0,P|309:169|280:63,1,172.5
132,65,2508,2,0,L|51:80,2,57.5,0|2|2,0:0|0:0|0:0,0:0:0:0:
197,101,3008,6,0,L|384:68,2,172.5,0|0|0,0:0|0:0|0:0,0:0:0:0:
144,155,4175,1,2,0:0:0:0:
88,204,4341,2,0,L|70:322,1,115,0|0,0:0|0:0,0:0:0:0:
141,342,4841,2,0,L|158:228,1,115,0|0,0:0|0:0,0:0:0:0:
220,186,5341,2,0,P|278:169|295:173,1,57.5,2|2,0:0|0:0,0:0:0:0:
342,197,5675,6,0,B|401:204|401:204|515:179,2,172.5,2|0|0,0:0|0:0|0:0,0:0:0:0:
278,156,6841,1,2,0:0:0:0:
235,217,7008,2,0,B|176:210|176:210|65:234,1,172.5,0|0,0:0|0:0,0:0:0:0:
164,346,7841,2,0,L|107:357,2,57.5,0|2|2,0:0|0:0|0:0,0:0:0:0:
236,326,8341,6,0,B|275:308|319:327|319:327|363:346|412:326,2,172.5
165,300,9508,1,2,0:0:0:0:
125,236,9675,2,0,L|140:147,2,57.5,4|0|8,0:0|0:0|0:0,0:0:0:0:
73,290,10175,2,0,L|63:346,2,57.5,4|0|8,0:0|0:0|0:0,0:0:0:0:
57,216,10675,2,0,L|-2:206,1,57.5,8|0,0:0|0:0,0:0:0:0:
23,135,11008,6,0,P|84:137|139:107,1,115,4|8,0:0|0:0,0:0:0:0:
257,28,11675,1,0,0:0:0:0:
380,113,12008,2,0,P|432:137|489:135,2,115,8|0|8,0:0|0:0|0:0,0:0:0:0:
323,64,12841,2,0,L|359:201,1,115,0|0,0:0|0:0,0:0:0:0:
337,248,13341,2,0,B|310:255|310:255|265:249,1,57.5,8|2,0:0|0:0,0:0:0:0:
211,221,13675,6,0,L|92:241,1,115,0|8,0:0|0:0,0:0:0:0:
139,96,14341,1,0,0:0:0:0:
288,107,14675,2,0,L|401:87,2,115,8|0|8,0:0|0:0|0:0,0:0:0:0:
260,176,15508,2,0,L|241:291,1,115,0|0,0:0|0:0,0:0:0:0:
215,359,16008,2,0,B|185:362|185:362|158:355,1,57.5,8|2,0:0|0:0,0:0:0:0:
99,309,16341,6,0,L|68:195,1,115,0|8,0:0|0:0,0:0:0:0:
180,98,17008,1,0,0:0:0:0:
304,180,17341,2,0,P|364:175|419:136,2,115,8|0|8,0:0|0:0|0:0,0:0:0:0:
237,215,18175,2,0,P|230:275|191:321,1,115,0|0,0:0|0:0,0:0:0:0:
125,337,18675,2,0,L|57:330,1,57.5,8|2,0:0|0:0,0:0:0:0:
10,283,19008,6,0,P|13:226|65:181,1,115,0|8,0:0|0:0,0:0:0:0:
199,163,19675,1,0,0:0:0:0:
102,48,20008,2,0,L|41:33,1,57.5,8|2,0:0|0:0,0:0:0:0:
55,111,20341,2,0,P|113:125|164:95,1,115,4|2,0:0|0:0,0:0:0:0:
233,89,20841,2,0,P|283:64|337:79,1,115,0|2,0:0|0:0,0:0:0:0:
411,61,21341,2,0,L|431:4,1,57.5,8|0,0:0|0:0,0:0:0:0:
495,44,21675,6,0,L|448:164,1,115,4|8,0:0|0:0,0:0:0:0:
401,204,22175,1,0,0:0:0:0:
355,263,22341,2,0,B|320:275|320:275|239:264,1,115,0|8,0:0|0:0,0:0:0:0:
170,245,22841,1,0,0:0:0:0:
194,174,23008,2,0,B|229:162|229:162|310:173,1,115,0|8,0:0|0:0,0:0:0:0:
375,144,23508,2,0,P|341:105|319:100,2,57.5,0|0|2,0:0|0:0|0:0,0:0:0:0:
370,218,24008,2,0,L|358:278,1,57.5,8|0,0:0|0:0,0:0:0:0:
335,345,24341,6,0,L|223:323,1,115,0|8,0:0|0:0,0:0:0:0:
84,263,25008,2,0,L|196:241,1,115,0|8,0:0|0:0,0:0:0:0:
268,219,25508,1,0,0:0:0:0:
219,161,25675,2,0,P|195:100|206:40,1,115,0|8,0:0|0:0,0:0:0:0:
274,39,26175,2,0,P|296:91|292:147,1,115,0|2,0:0|0:0,0:0:0:0:
268,219,26675,2,0,L|283:294,1,57.5,8|0,0:0|0:0,0:0:0:0:
302,346,27008,6,0,P|364:335|409:291,1,115,0|8,0:0|0:0,0:0:0:0:
419,228,27508,1,0,0:0:0:0:
363,177,27675,2,0,L|243:155,1,115,0|8,0:0|0:0,0:0:0:0:
176,141,28175,1,0,0:0:0:0:
102,130,28341,2,0,P|125:86|191:68,1,115,0|8,0:0|0:0,0:0:0:0:
250,101,28841,2,0,P|306:104|361:61,1,115,0|2,0:0|0:0,0:0:0:0:
410,23,29341,2,0,P|430:70|426:89,1,57.5,8|0,0:0|0:0,0:0:0:0:
393,140,29675,6,0,B|384:176|384:176|402:266,1,115,0|8,0:0|0:0,0:0:0:0:
293,357,30341,2,0,B|302:321|302:321|286:244,1,115,0|8,0:0|0:0,0:0:0:0:
225,200,30841,1,0,0:0:0:0:
154,225,31008,2,0,L|92:234,2,57.5,0|8|8,0:0|0:0|0:0,0:0:0:0:
225,200,31508,2,0,L|281:191,2,57.5,0|8|2,0:0|0:0|0:0,0:0:0:0:
170,148,32008,2,0,P|155:113|156:83,1,57.5,8|8,0:0|0:0,0:0:0:0:
203,37,32341,6,0,L|332:22,1,115,4|12,0:0|0:0,0:0:0:0:
392,23,32841,1,0,0:0:0:0:
383,97,33008,2,0,L|268:110,1,115,0|8,0:0|0:0,0:0:0:0:
201,143,33508,1,0,0:0:0:0:
221,214,33675,2,0,P|222:268|166:317,1,115,0|8,0:0|0:0,0:0:0:0:
150,243,34175,2,0,L|29:230,1,115,0|10,0:0|0:0,0:0:0:0:
35,155,34675,2,0,L|103:163,1,57.5,8|0,0:0|0:0,0:0:0:0:
166,169,35008,6,0,P|192:132|189:51,1,115,0|8,0:0|0:0,0:0:0:0:
286,182,35675,2,0,P|284:238|314:286,1,115,0|8,0:0|0:0,0:0:0:0:
376,328,36175,1,0,0:0:0:0:
450,322,36341,2,0,L|511:314,1,57.5,0|0,0:0|0:0,0:0:0:0:
488,241,36675,1,8,0:0:0:0:
414,252,36841,2,0,L|356:259,1,57.5,0|0,0:0|0:0,0:0:0:0:
282,270,37175,2,0,L|224:277,2,57.5,10|8|0,0:0|0:0|0:0,0:0:0:0:
316,203,37675,6,0,P|334:153|312:72,1,115,0|8,0:0|0:0,0:0:0:0:
271,40,38175,1,0,0:0:0:0:
197,26,38341,2,0,L|79:20,1,115,0|8,0:0|0:0,0:0:0:0:
46,86,38841,1,0,0:0:0:0:
83,151,39008,2,0,L|68:283,1,115,0|8,0:0|0:0,0:0:0:0:
143,277,39508,2,0,L|158:145,1,115,0|10,0:0|0:0,0:0:0:0:
182,92,40008,1,8,0:0:0:0:
255,77,40175,1,0,0:0:0:0:
309,127,40341,5,4,0:0:0:0:
423,29,40675,1,8,0:0:0:0:
485,164,41008,1,0,0:0:0:0:
451,230,41175,1,8,0:0:0:0:
300,228,41508,1,0,0:0:0:0:
234,264,41675,2,0,L|168:255,2,57.5,4|0|8,0:0|0:0|0:0,0:0:0:0:
293,309,42175,2,0,L|349:316,2,57.5,8|8|8,0:0|0:0|0:0,0:0:0:0:
225,342,42675,2,0,L|160:334,1,57.5,8|8,0:0|0:0,0:0:0:0:
96,324,43008,5,2,0:2:0:0:
33,282,43175,1,0,0:0:0:0:
99,247,43341,1,0,0:0:0:0:
166,214,43508,2,0,P|190:155|175:82,1,115,2|0,0:2|0:0,0:0:0:0:
227,43,44008,2,0,P|223:99|246:151,1,115,2|0,0:2|0:0,0:0:0:0:
314,182,44508,2,0,L|436:158,1,115,2|0,0:2|0:0,0:0:0:0:
498,138,45008,1,0,0:0:0:0:
453,280,45341,2,0,L|397:272,1,57.5,2|2,0:2|0:2,0:0:0:0:
322,255,45675,5,0,0:0:0:0:
339,327,45841,1,0,0:0:0:0:
267,305,46008,2,0,L|138:287,1,115,2|2,0:2|0:2,0:0:0:0:
79,277,46508,2,0,P|106:229|163:215,1,115,0|2,0:0|0:2,0:0:0:0:
235,203,47008,2,0,P|207:154|152:140,1,115,2|0,0:2|0:0,0:0:0:0:
79,128,47508,2,0,P|106:80|148:67,2,57.5,2|2|0,0:2|0:2|0:0,0:0:0:0:
60,200,48008,2,0,L|75:262,1,57.5,2|0,0:2|0:0,0:0:0:0:
99,325,48341,5,0,0:0:0:0:
160,282,48508,1,2,0:2:0:0:
231,304,48675,1,8,0:0:0:0:
291,260,48841,1,2,0:2:0:0:
364,272,49008,2,0,L|488:284,1,115,2|0,0:2|0:0,0:0:0:0:
502,212,49508,2,0,L|387:200,1,115,2|0,0:2|0:0,0:0:0:0:
313,188,50008,1,0,0:0:0:0:
167,17,50508,1,2,0:2:0:0:
174,91,50675,2,0,L|183:158,2,57.5,2|2|0,0:2|0:2|0:0,0:0:0:0:
102,69,51175,5,2,0:2:0:0:
50,122,51341,1,0,0:0:0:0:
18,190,51508,2,0,P|9:222|14:254,1,57.5,2|0,0:2|0:0,0:0:0:0:
116,352,52008,2,0,P|144:354|171:346,1,57.5,2|0,0:2|0:0,0:0:0:0:
289,252,52508,2,0,P|290:223|282:196,1,57.5,2|8,0:2|0:0,0:0:0:0:
234,138,52841,1,2,0:2:0:0:
163,112,53008,2,0,L|99:101,2,57.5,2|2|2,0:2|0:2|0:2,0:0:0:0:
234,138,53508,1,2,0:2:0:0:
306,120,53675,6,0,P|351:81|358:11,1,115,0|0,0:0|0:0,0:0:0:0:
389,98,54175,2,0,P|401:153|444:189,1,115,2|0,0:2|0:0,0:0:0:0:
505,232,54675,1,8,0:0:0:0:
440,269,54841,2,0,L|432:326,2,57.5,2|0|0,0:2|0:0|0:0,0:0:0:0:
367,250,55341,2,0,L|359:307,2,57.5,2|0|0,0:2|0:0|0:0,0:0:0:0:
294,230,55841,2,0,L|286:287,2,57.5,2|2|0,0:2|0:2|0:0,0:0:0:0:
254,166,56341,6,0,B|216:149|216:149|178:144|138:174,1,115,2|0,0:2|0:0,0:0:0:0:
89,216,56841,2,0,B|67:248|75:286|75:286|94:323,1,115,2|0,0:2|0:0,0:0:0:0:
163,349,57341,2,0,L|232:334,1,57.5,2|0,0:2|0:0,0:0:0:0:
290,313,57675,1,0,0:0:0:0:
363,300,57841,1,2,0:2:0:0:
436,313,58008,1,8,0:0:0:0:
504,343,58175,1,2,0:2:0:0:
498,268,58341,2,0,P|481:224|500:151,1,115,2|2,0:2|0:2,0:0:0:0:
501,84,58841,1,0,0:0:0:0:
434,118,59008,5,0,0:0:0:0:
365,147,59175,2,0,P|313:169|257:160,1,115,2|2,0:2|0:2,0:0:0:0:
207,104,59675,2,0,L|189:40,2,57.5,2|0|0,0:2|0:0|0:0,0:0:0:0:
176,172,60175,1,2,0:2:0:0:
111,209,60341,1,8,0:0:0:0:
237,289,60675,2,0,L|306:278,1,57.5,0|0,0:0|0:0,0:0:0:0:
367,265,61008,2,0,P|355:323|312:353,1,115,0|2,0:0|0:2,0:0:0:0:
237,367,61508,1,2,0:2:0:0:
167,338,61675,6,0,L|96:357,1,57.5,2|0,0:2|0:0,0:0:0:0:
162,211,62175,2,0,L|91:230,1,57.5,2|0,0:2|0:0,0:0:0:0:
156,84,62675,2,0,L|85:103,1,57.5,2|0,0:2|0:0,0:0:0:0:
68,31,63008,2,0,L|183:3,1,115,4|0,0:0|0:0,0:0:0:0:
247,34,63508,2,0,P|239:92|285:147,1,115,0|0,0:0|0:0,0:0:0:0:
339,161,64008,2,0,L|400:149,1,57.5,8|8,0:0|0:0,0:0:0:0:
466,125,64341,6,0,P|426:164|446:270,1,172.5,6|2,0:0|0:0,0:0:0:0:
225,334,65341,2,0,B|187:315|141:335|141:335|100:354|48:332,2,172.5,10|2|0,0:0|0:0|0:0,0:0:0:0:
293,365,66508,1,2,0:0:0:0:
326,297,66675,2,0,P|335:254|324:220,1,57.5,10|0,0:0|0:0,0:0:0:0:
268,202,67008,6,0,P|324:205|376:165,1,115,0|8,0:0|0:0,0:0:0:0:
398,103,67508,2,0,L|385:26,2,57.5,2|2|0,0:0|0:0|0:0,0:0:0:0:
371,173,68008,2,0,L|388:289,1,115,10|0,0:0|0:0,0:0:0:0:
453,322,68508,2,0,P|403:358|312:285,1,172.5,2|2,0:0|0:0,0:0:0:0:
257,171,69341,1,10,0:0:0:0:
126,244,69675,6,0,P|92:229|49:236,1,57.5,0|2,0:0|0:0,0:0:0:0:
79,303,70008,1,10,0:0:0:0:
152,317,70175,1,0,0:0:0:0:
200,260,70341,2,0,P|195:217|182:193,1,57.5,2|0,0:0|0:0,0:0:0:0:
123,168,70675,1,10,0:0:0:0:
50,149,70841,2,0,P|85:102|167:106,1,115,2|2,0:0|0:0,0:0:0:0:
206,61,71341,2,0,P|212:89|208:118,1,57.5,10|2,0:0|0:0,0:0:0:0:
172,184,71675,2,0,P|159:222|166:254,1,57.5,2|0,0:0|0:0,0:0:0:0:
234,228,72008,2,0,L|316:219,1,57.5,10|0,0:0|0:0,0:0:0:0:
265,151,72341,6,0,L|347:142,1,57.5,0|2,0:0|0:0,0:0:0:0:
397,139,72675,1,8,0:0:0:0:
471,134,72841,2,0,L|485:65,2,57.5,2|2|0,0:0|0:0|0:0,0:0:0:0:
450,206,73341,2,0,L|438:262,1,57.5,10|0,0:0|0:0,0:0:0:0:
364,246,73675,2,0,L|352:302,1,57.5,2|2,0:0|0:0,0:0:0:0:
279,284,74008,2,0,L|267:340,1,57.5,10|0,0:0|0:0,0:0:0:0:
197,314,74341,2,0,L|185:370,2,57.5,8|0|8,0:0|0:0|0:0,0:0:0:0:
211,240,74841,1,0,0:0:0:0:
161,183,75008,6,0,B|154:126|154:126|129:73|129:73|121:17,2,172.5,6|2|10,0:0|0:0|0:0,0:0:0:0:
351,300,76508,2,0,B|406:286|406:286|454:253|454:253|509:237,1,172.5,2|2,0:0|0:0,0:0:0:0:
452,99,77341,2,0,L|390:91,1,57.5,8|0,0:0|0:0,0:0:0:0:
320,79,77675,6,0,L|298:205,1,115,2|8,0:0|0:0,0:0:0:0:
285,265,78175,1,2,0:0:0:0:
267,337,78341,2,0,L|154:311,1,115,2|10,0:0|0:0,0:0:0:0:
78,182,79008,1,0,0:0:0:0:
19,131,79175,1,0,0:0:0:0:
72,79,79341,2,0,L|79:11,2,57.5,10|2|2,0:0|0:0|0:0,0:0:0:0:
132,123,79841,1,2,0:0:0:0:
196,161,80008,2,0,P|246:163|301:133,1,115,10|0,0:0|0:0,0:0:0:0:
317,59,80508,6,0,P|331:113|389:139,1,115,2|0,0:0|0:0,0:0:0:0:
455,141,81008,2,0,L|515:132,2,57.5,2|0|10,0:0|0:0|0:0,0:0:0:0:
415,204,81508,2,0,P|385:249|398:316,1,115,2|2,0:0|0:0,0:0:0:0:
330,349,82008,2,0,P|309:308|306:283,1,57.5,8|2,0:0|0:0,0:0:0:0:
232,300,82341,2,0,P|224:327|208:351,2,57.5,2|0|10,0:0|0:0|0:0,0:0:0:0:
241,225,82841,1,0,0:0:0:0:
220,153,83008,6,0,L|196:41,1,115,2|10,0:0|0:0,0:0:0:0:
126,69,83508,2,0,L|150:181,1,115,2|2,0:0|0:0,0:0:0:0:
173,252,84008,1,8,0:0:0:0:
299,171,84341,1,4,0:0:0:0:
367,200,84508,1,0,0:0:0:0:
436,227,84675,2,0,L|462:292,2,57.5
429,152,85175,2,0,L|450:98,2,57.5,0|8|0,0:0|0:0|0:0,0:0:0:0:
367,200,85675,5,4,0:0:0:0:
128,295,96341,6,0,L|197:301,1,57.5,0|0,0:0|0:0,0:0:0:0:
260,306,96675,2,0,L|329:312,1,57.5,8|0,0:0|0:0,0:0:0:0:
391,316,97008,2,0,L|425:195,2,115,8|0|8,0:0|0:0|0:0,0:0:0:0:
269,228,98008,1,0,0:0:0:0:
169,116,98341,2,0,L|135:237,2,115,0|8|0,0:0|0:0|0:0,0:0:0:0:
312,159,99341,5,0,0:0:0:0:
384,139,99508,1,8,0:0:0:0:
454,112,99675,2,0,L|471:45,1,57.5,8|8,0:0|0:0,0:0:0:0:
407,12,100008,2,0,L|392:67,1,57.5,2|8,0:0|0:0,0:0:0:0:
346,126,100341,2,0,P|284:124|236:82,1,115,8|8,0:0|0:0,0:0:0:0:
151,211,101008,2,0,P|202:187|258:198,1,115,2|8,0:0|0:0,0:0:0:0:
308,252,101508,1,8,0:0:0:0:
334,322,101675,6,0,L|323:379,1,57.5,0|8,1:0|0:0,0:0:0:0:
398,377,102008,2,0,L|409:320,1,57.5,0|0,1:0|0:0,0:0:0:0:
483,316,102341,2,0,L|472:373,2,57.5,0|0|0,1:0|0:0|1:0,0:0:0:0:
450,248,102841,1,8,0:0:0:0:
406,186,103008,2,0,B|335:167|335:167|263:178|263:178|177:155,1,230,0|0,1:0|1:0,0:0:0:0:
43,99,104008,1,0,1:0:0:0:
67,169,104175,1,8,0:0:0:0:
102,234,104341,6,0,L|81:352,1,115,0|0,1:0|1:0,0:0:0:0:
154,365,104841,1,8,0:0:0:0:
208,313,105008,2,0,P|250:284|318:281,1,115,0|0,1:0|1:0,0:0:0:0:
384,301,105508,1,8,0:0:0:0:
454,325,105675,2,0,L|476:196,1,115,0|0,1:0|1:0,0:0:0:0:
489,138,106175,1,8,0:0:0:0:
416,156,106341,2,0,L|322:175,1,57.5,0|0,1:0|1:0,0:0:0:0:
286,186,106675,2,0,L|249:180,3,28.75,2|0|2|0,0:1|0:0|0:1|0:0,0:0:0:0:
220,177,107008,6,0,L|97:193,1,115,4|8,1:2|0:0,0:0:0:0:
31,200,107508,1,0,0:0:0:0:
59,130,107675,2,0,P|71:95|65:58,2,57.5,0|0|8,0:0|0:0|0:0,0:0:0:0:
31,200,108175,1,0,0:0:0:0:
45,273,108341,2,0,B|87:294|87:294|175:284,1,115,0|8,1:0|0:0,0:0:0:0:
227,271,108841,1,0,0:0:0:0:
300,255,109008,2,0,L|313:318,2,57.5,0|0|8,0:0|0:0|0:0,0:0:0:0:
372,236,109508,1,0,0:0:0:0:
445,222,109675,6,0,L|476:106,2,115,0|8|0,1:0|0:0|0:0,0:0:0:0:
421,293,110508,1,0,0:0:0:0:
395,363,110675,2,0,L|331:351,1,57.5,8|0,0:0|0:0,0:0:0:0:
267,329,111008,1,0,1:0:0:0:
195,350,111175,1,0,0:0:0:0:
125,324,111341,1,8,0:0:0:0:
57,355,111508,1,0,0:0:0:0:
5,301,111675,2,0,P|4:241|41:203,1,115,0|8,0:0|0:0,0:0:0:0:
112,183,112175,1,0,0:0:0:0:
182,159,112341,6,0,L|190:89,2,57.5,0|0|8,1:0|0:0|0:0,0:0:0:0:
250,188,112841,1,0,0:0:0:0:
317,155,113008,2,0,L|325:85,2,57.5,0|0|8,0:0|0:0|0:0,0:0:0:0:
187,230,113675,2,0,B|149:235|149:235|49:212,2,115,0|8|0,1:0|0:0|0:0,0:0:0:0:
256,202,114508,1,0,0:0:0:0:
283,271,114675,2,0,L|298:340,1,57.5,8|0,0:0|0:0,0:0:0:0:
359,364,115008,6,0,L|390:237,1,115,0|8,1:0|0:0,0:0:0:0:
408,180,115508,1,0,0:0:0:0:
453,120,115675,2,0,P|422:106|398:105,1,57.5
335,145,116008,2,0,P|304:159|280:160,1,57.5,8|0,0:0|0:0,0:0:0:0:
213,128,116341,2,0,P|253:189|240:240,1,115,0|8,1:0|0:0,0:0:0:0:
185,270,116841,2,0,L|152:263,9,28.75,8|0|8|0|8|0|8|8|8|8,0:0|0:0|0:0|0:0|0:0|0:0|0:0|0:0|0:0|0:0,0:0:0:0:
121,249,117675,6,0,P|81:188|94:137,1,115,12|8,0:0|0:0,0:0:0:0:
131,87,118175,1,8,0:0:0:0:
203,66,118341,2,0,L|324:48,1,115,8|8,0:0|0:0,0:0:0:0:
389,32,118841,1,8,0:0:0:0:
390,106,119008,2,0,L|378:180,2,57.5,0|8|8,0:0|0:0|0:0,0:0:0:0:
464,106,119508,2,0,L|473:49,2,57.5,8|8|8,0:0|0:0|0:0,0:0:0:0:
454,180,120008,2,0,L|445:237,1,57.5,8|8,0:0|0:0,0:0:0:0:
414,305,120341,6,0,L|297:326,1,115,8|8,0:0|0:0,0:0:0:0:
228,306,120841,1,8,0:0:0:0:
175,251,121008,2,0,P|151:298|178:363,2,115,8|8|8,0:0|0:0|0:0,0:0:0:0:
239,212,121841,1,8,0:0:0:0:
173,177,122008,2,0,L|91:170,1,57.5,8|8,0:0|0:0,0:0:0:0:
41,163,122341,1,8,0:0:0:0:
82,100,122508,1,8,0:0:0:0:
123,37,122675,2,0,L|167:41,3,28.75,8|8|8|8,0:0|0:0|0:0|0:0,0:0:0:0:
189,44,123008,6,0,L|305:27,1,115,4|8,0:0|0:0,0:0:0:0:
376,41,123508,1,8,0:0:0:0:
329,99,123675,2,0,P|318:133|323:168,1,57.5,8|0,0:0|0:0,0:0:0:0:
341,225,124008,2,0,P|367:248|401:258,1,57.5,8|0,0:0|0:0,0:0:0:0:
455,288,124341,2,0,L|341:304,1,115,8|8,0:0|0:0,0:0:0:0:
268,320,124841,1,8,0:0:0:0:
234,253,125008,2,0,L|218:185,2,57.5,8|8|8,0:0|0:0|0:0,0:0:0:0:
190,313,125508,1,8,0:0:0:0:
119,338,125675,6,0,L|51:330,1,57.5,8|8,0:0|0:0,0:0:0:0:
51,257,126008,2,0,L|108:263,1,57.5,8|8,0:0|0:0,0:0:0:0:
113,189,126341,2,0,L|45:181,1,57.5,8|8,0:0|0:0,0:0:0:0:
45,108,126675,2,0,L|102:114,1,57.5,8|8,0:0|0:0,0:0:0:0:
177,119,127008,2,0,P|215:113|241:95,1,57.5,8|0,0:0|0:0,0:0:0:0:
297,139,127341,2,0,P|322:151|351:154,1,57.5,8|0,0:0|0:0,0:0:0:0:
426,149,127675,2,0,L|467:141,3,28.75,2|0|2|0,0:0|0:0|0:0|0:0,0:0:0:0:
490,133,128008,1,14,0:0:0:0:
360,53,128341,6,0,P|301:34|244:46,1,115,4|8,0:0|0:0,0:0:0:0:
188,85,128841,1,0,0:0:0:0:
148,148,129008,2,0,L|130:213,1,57.5
202,230,129341,2,0,L|217:174,1,57.5,8|0,0:0|0:0,0:0:0:0:
279,132,129675,2,0,L|415:161,2,115,0|8|0,0:0|0:0|0:0,0:0:0:0:
204,126,130508,1,0,0:0:0:0:
152,180,130675,2,0,P|104:197|75:193,1,57.5,8|0,0:0|0:0,0:0:0:0:
33,159,131008,6,0,P|23:204|63:263,1,115,0|8,0:0|0:0,0:0:0:0:
132,264,131508,1,0,0:0:0:0:
204,247,131675,2,0,L|222:321,1,57.5,0|0,0:0|0:0,0:0:0:0:
292,303,132008,2,0,L|278:247,1,57.5,8|0,0:0|0:0,0:0:0:0:
307,178,132341,2,0,P|356:161|433:180,2,115,0|8|0,0:0|0:0|0:0,0:0:0:0:
245,221,133175,1,0,0:0:0:0:
171,206,133341,2,0,L|132:198,3,28.75,8|0|8|0,0:0|0:0|0:0|0:0,0:0:0:0:
105,192,133675,6,0,L|39:199,1,57.5,0|0,0:0|0:0,0:0:0:0:
18,128,134008,2,0,L|75:121,1,57.5,8|0,0:0|0:0,0:0:0:0:
147,103,134341,2,0,P|189:66|244:70,1,115,0|8,0:0|0:0,0:0:0:0:
304,116,134841,1,0,0:0:0:0:
328,186,135008,2,0,P|312:223|314:252,1,57.5,0|0,0:0|0:0,0:0:0:0:
364,293,135341,2,0,P|380:330|378:359,1,57.5,8|0,0:0|0:0,0:0:0:0:
304,341,135675,2,0,L|179:318,1,115,0|8,0:0|0:0,0:0:0:0:
119,296,136175,1,0,0:0:0:0:
175,247,136341,6,0,P|191:215|187:176,1,57.5,0|0,0:0|0:0,0:0:0:0:
172,121,136675,2,0,L|145:70,1,57.5,8|0,0:0|0:0,0:0:0:0:
84,25,137008,2,0,P|143:34|219:6,1,115,0|8,0:0|0:0,0:0:0:0:
259,58,137508,1,0,0:0:0:0:
332,74,137675,2,0,P|388:64|443:78,1,115,0|8,0:0|0:0,0:0:0:0:
493,134,138175,1,0,0:0:0:0:
456,198,138341,2,0,L|466:238,3,28.75
440,256,138675,2,0,L|450:296,3,28.75,8|0|0|0,0:0|0:0|0:0|0:0,0:0:0:0:
432,318,139008,6,0,P|384:324|317:295,1,115,2|12,0:2|0:0,0:0:0:0:
279,239,139508,1,0,0:0:0:0:
236,300,139675,2,0,L|157:308,1,57.5,0|0,0:0|0:0,0:0:0:0:
149,236,140008,2,0,L|206:230,1,57.5,8|0,0:0|0:0,0:0:0:0:
245,166,140341,2,0,P|222:115|246:59,1,115,0|8,0:0|0:0,0:0:0:0:
309,28,140841,1,0,0:0:0:0:
383,31,141008,2,0,L|501:50,1,115,0|8,0:0|0:0,0:0:0:0:
493,124,141508,1,0,0:0:0:0:
420,142,141675,6,0,L|306:123,1,115,0|8,0:0|0:0,0:0:0:0:
167,178,142341,2,0,L|281:197,1,115,0|8,0:0|0:0,0:0:0:0:
367,319,143008,2,0,B|326:330|326:330|238:313,1,115,0|8,0:0|0:0,0:0:0:0:
181,301,143508,1,0,0:0:0:0:
108,280,143675,2,0,L|51:267,1,57.5
70,195,144008,2,0,L|111:204,3,28.75,8|0|0|0,0:0|0:0|0:0|0:0,0:0:0:0:
135,201,144341,6,0,P|157:145|143:81,1,115,0|8,0:0|0:0,0:0:0:0:
119,23,144841,1,0,0:0:0:0:
193,25,145008,2,0,L|315:34,1,115,0|8,0:0|0:0,0:0:0:0:
382,37,145508,1,0,0:0:0:0:
418,103,145675,2,0,L|436:177,1,57.5,0|0,0:0|0:0,0:0:0:0:
367,197,146008,2,0,L|353:141,1,57.5,8|0,0:0|0:0,0:0:0:0:
286,173,146341,2,0,P|280:239|238:282,1,115,0|8,0:0|0:0,0:0:0:0:
180,302,146841,1,0,0:0:0:0:
106,314,147008,6,0,L|32:301,2,57.5,0|0|8,0:0|0:0|0:0,0:0:0:0:
180,302,147508,1,0,0:0:0:0:
136,240,147675,2,0,L|16:217,1,115,0|8,0:0|0:0,0:0:0:0:
9,144,148175,1,0,0:0:0:0:
74,108,148341,2,0,P|115:95|196:105,1,115,0|8,0:0|0:0,0:0:0:0:
250,139,148841,1,0,0:0:0:0:
274,209,149008,2,0,L|257:292,1,57.5,8|0,0:0|0:0,0:0:0:0:
253,339,149341,2,0,L|292:346,3,28.75,8|0|0|0,0:0|0:0|0:0|0:0,0:0:0:0:
319,346,149675,6,0,B|375:346|375:346|438:314,1,115,6|8,0:0|0:0,0:0:0:0:
498,187,150341,2,0,B|445:160|445:160|389:160,1,115,2|8,0:0|0:0,0:0:0:0:
314,160,150841,1,2,0:0:0:0:
254,114,151008,2,0,P|238:58|263:3,2,115,2|10|0,0:0|0:0|0:0,0:0:0:0:
314,160,151841,1,0,0:0:0:0:
274,223,152008,2,0,L|258:286,1,57.5,10|0,0:0|0:0,0:0:0:0:
308,335,152341,6,0,P|250:316|181:325,1,115,0|10,0:0|0:0,0:0:0:0:
128,351,152841,1,0,0:0:0:0:
64,311,153008,2,0,P|47:284|52:245,1,57.5,2|0,0:0|0:0,0:0:0:0:
87,196,153341,1,8,0:0:0:0:
155,165,153508,1,0,0:0:0:0:
229,167,153675,2,0,L|343:190,1,115,2|10,0:0|0:0,0:0:0:0:
403,232,154175,1,0,0:0:0:0:
453,286,154341,2,0,P|415:303|388:303,1,57.5,2|0,0:0|0:0,0:0:0:0:
330,274,154675,2,0,P|292:257|265:257,1,57.5,10|8,0:0|0:0,0:0:0:0:
203,271,155008,6,0,P|145:275|90:241,1,115,0|10,0:0|0:0,0:0:0:0:
61,182,155508,1,0,0:0:0:0:
33,112,155675,2,0,L|12:-11,1,115,0|10,0:0|0:0,0:0:0:0:
145,68,156341,2,0,L|157:128,2,57.5,2|0|10,0:0|0:0|0:0,0:0:0:0:
200,17,156841,1,0,0:0:0:0:
274,26,157008,2,0,P|324:30|384:0,1,115,2|10,0:0|0:0,0:0:0:0:
449,34,157508,1,0,0:0:0:0:
448,108,157675,6,0,L|476:233,1,115,0|10,0:0|0:0,0:0:0:0:
494,291,158175,1,0,0:0:0:0:
421,308,158341,2,0,L|351:319,1,57.5
341,245,158675,2,0,L|397:236,1,57.5,10|0,0:0|0:0,0:0:0:0:
473,220,159008,2,0,P|446:177|385:162,1,115,0|10,0:0|0:0,0:0:0:0:
252,228,159675,1,0,0:0:0:0:
184,259,159841,1,0,0:0:0:0:
118,222,160008,2,0,L|76:211,3,28.75,10|0|2|0,0:0|0:0|0:0|0:0,0:0:0:0:
54,202,160341,6,0,P|28:161|41:95,1,115,6|10,0:0|0:0,0:0:0:0:
95,48,160841,1,0,0:0:0:0:
161,13,161008,2,0,L|280:25,1,115,2|8,0:0|0:0,0:0:0:0:
349,33,161508,1,0,0:0:0:0:
308,95,161675,2,0,P|294:128|319:206,1,115,0|10,0:0|0:0,0:0:0:0:
379,238,162175,1,0,0:0:0:0:
451,253,162341,2,0,P|490:246|507:232,1,57.5,2|0,0:0|0:0,0:0:0:0:
509,160,162675,2,0,P|494:123|476:109,1,57.5,10|2,0:0|0:0,0:0:0:0:
406,102,163008,6,0,L|279:138,1,115,2|10,0:0|0:0,0:0:0:0:
224,158,163508,1,0,0:0:0:0:
164,203,163675,2,0,P|147:164|155:131,2,57.5,2|0|10,0:0|0:0|0:0,0:0:0:0:
232,233,164175,1,2,0:0:0:0:
173,278,164341,2,0,P|129:270|87:213,2,115,0|8|0,0:0|0:0|0:0,0:0:0:0:
292,187,165341,2,0,L|306:141,3,28.75,10|0|10|0,0:0|0:0|0:0|0:0,0:0:0:0:
322,129,165675,6,0,L|395:120,1,57.5,2|0,0:0|0:0,0:0:0:0:
400,50,166008,2,0,P|442:86|450:144,2,115,8|0|10,0:0|0:0|0:0,0:0:0:0:
328,26,166841,1,2,0:0:0:0:
263,66,167008,2,0,P|240:111|260:177,1,115,2|8,0:0|0:0,0:0:0:0:
322,204,167508,1,0,0:0:0:0:
265,252,167675,2,0,B|275:286|275:286|248:360,1,115,0|8,0:0|0:0,0:0:0:0:
99,340,168341,6,0,B|89:306|89:306|116:232,1,115,0|10,0:0|0:0,0:0:0:0:
146,162,168841,1,0,0:0:0:0:
73,141,169008,2,0,L|13:125,2,57.5,0|2|8,0:0|0:0|0:0,0:0:0:0:
146,162,169508,1,0,0:0:0:0:
217,184,169675,2,0,L|275:171,1,57.5,0|0,0:0|0:0,0:0:0:0:
330,219,170008,2,0,L|386:206,1,57.5,8|0,0:0|0:0,0:0:0:0:
446,251,170341,2,0,L|479:242,3,28.75,8|0|0|0,0:0|0:0|0:0|0:0,0:0:0:0:
479,206,170675,2,0,L|506:198,3,28.75,8|0|8|0,0:0|0:0|0:0|0:0,0:0:0:0:
508,161,171008,5,4,0:0:0:0:
