osu file format v5

[General]
AudioFilename: OUENDAN Over the distance.mp3
AudioLeadIn: 0
AudioHash: 7a8bb3e7c5d8110dc4485e4c60d06856
PreviewTime: -1
Countdown: 0
SampleSet: Soft
EditorBookmarks: 14558,55319,87601,110753,130971

[Metadata]
Title:Over the distance
Artist:Hitomi Yaida
Creator:mattyu007
Version:Easy

[Difficulty]
HPDrainRate:5
CircleSize:4
OverallDifficulty:2
SliderMultiplier: 0.899999999999999
SliderTickRate: 1

[Events]
//Background and Video events
0,-100000,"Over the Distance edit.png"
//Break Periods
2,35977,55421
2,78368,87490
2,101846,110642
2,121412,131073
//Storyboard Layer 0 (Background)
//Storyboard Layer 1 (Failing)
//Storyboard Layer 2 (Passing)
//Storyboard Layer 3 (Foreground)
//Storyboard Sound Samples
//Background Colour Transformations
3,148,163,162,255

[TimingPoints]
2517,326.086956521739,4,2,1,70
36430,326.086956521739,4,1,1,80
102944,326.086956521739,4,2,1,70
130998,326.086956521739,4,1,1,80

[HitObjects]
32,96,15560,2,2,C|32:96|98:38|224:32,1,180
256,32,16538,1,4
320,32,16864,1,4
384,32,17190,1,4
448,32,17516,1,4
480,256,18169,6,2,C|480:256|414:314|288:320,1,180
256,320,19147,1,4
192,320,19473,1,4
128,320,19799,1,4
64,320,20125,1,4
32,160,20777,6,2,C|32:160|66:93|160:32,1,180
224,32,21756,1,4
288,32,22082,1,4
352,32,22408,1,4
416,32,22734,1,4
480,192,23386,6,2,C|480:192|463:268|405:336|288:352,1,270
239,352,24690,1,4
239,288,25016,1,4
239,224,25343,1,4
32,96,25995,6,2,C|32:96|98:38|224:32,1,180
256,32,26973,1,4
320,32,27299,1,4
384,32,27625,1,4
448,32,27951,1,4
480,256,28604,6,2,C|480:256|414:314|288:320,1,180
256,320,29582,1,4
192,320,29908,1,4
128,320,30234,1,4
64,320,30560,1,4
32,160,31212,6,2,C|32:160|66:93|160:32,1,180
224,32,32191,1,4
288,32,32517,1,4
352,32,32843,1,4
416,32,33169,1,4
385,226,33821,6,2,C|385:226|294:260|174:251|82:186,1,270
192,192,35125,1,4
256,192,35451,1,4
320,192,35777,1,4
256,128,56321,5,0
256,192,56647,1,0
256,256,56973,1,0
224,320,57299,2,2,C|224:320|112:316|44:256|0:160,1,270
256,128,58930,5,0
256,192,59256,1,0
256,256,59582,1,0
288,320,59908,2,2,C|288:320|400:316|468:256|512:160,1,270
256,192,61538,5,0
192,156,61864,1,0
134,112,62190,1,0
80,57,62516,6,2,C|80:57|255:12|432:57,3,360
256,128,66756,5,0
256,192,67082,1,0
256,256,67408,1,0
224,320,67734,2,2,C|224:320|112:316|44:256|0:160,1,270
256,128,69365,5,0
256,192,69691,1,0
256,256,70017,1,0
288,320,70343,2,2,C|288:320|400:316|468:256|512:160,1,270
256,196,71973,5,0
320,160,72299,1,0
378,112,72625,1,0
432,57,72951,6,2,C|432:57|257:12|80:57,2,360
434,194,76212,5,0
434,318,76864,2,2,C|434:318|259:363|82:318,1,360
128,128,88930,5,2
128,64,89256,1,2
32,192,89908,1,2
192,192,90560,1,2
384,128,91538,5,2
384,64,91864,1,2
480,192,92516,1,2
320,192,93168,1,2
434,318,93821,6,2,C|434:318|259:363|82:318,3,360
256,192,98386,5,0
218,288,99038,2,2,B|218:288|127:280|32:95|126:-41|384:-41|483:97|384:290|288:288,1,719.999999999999
32,96,112082,6,2,C|32:96|98:38|224:32,1,180
256,32,113060,1,4
320,32,113386,1,4
384,32,113712,1,4
448,32,114038,1,4
480,256,114691,6,2,C|480:256|414:314|288:320,1,180
256,320,115669,1,4
192,320,115995,1,4
128,320,116321,1,4
64,320,116647,1,4
32,160,117299,6,2,C|32:160|66:93|160:32,1,180
224,32,118278,1,4
288,32,118604,1,4
352,32,118930,1,4
416,32,119256,1,4
408,199,119908,2,6,B|408:199|252:372|96:192,1,360
256,128,131973,5,0
256,192,132299,1,0
256,256,132625,1,0
224,320,132951,2,2,C|224:320|112:316|44:256|0:160,1,270
256,128,134582,5,0
256,192,134908,1,0
256,256,135234,1,0
288,320,135560,2,2,C|288:320|400:316|468:256|512:160,1,270
256,192,137190,5,0
192,156,137516,1,0
134,112,137842,1,0
80,57,138168,6,2,C|80:57|255:12|432:57,3,360
256,128,142408,5,0
256,192,142734,1,0
256,256,143060,1,0
224,320,143386,2,2,C|224:320|112:316|44:256|0:160,1,270
256,128,145017,5,0
256,192,145343,1,0
256,256,145669,1,0
288,320,145995,2,2,C|288:320|400:316|468:256|512:160,1,270
288,192,147625,5,0
352,192,147951,1,0
416,192,148277,1,0
488,141,148603,6,2,B|488:141|252:-115|0:160,1,539.999999999999
96,192,151212,1,0
288,192,151864,1,0
480,192,152516,1,0
480,256,152843,1,0
480,320,153169,1,0
416,320,153495,1,0
352,320,153821,1,0
213,276,154473,6,2,C|213:276|83:123|73:50|153:30|260:114|355:30|438:43|432:127|247:348,1,1080
256,192,159038,12,4,164337
