osu file format v7

[General]
AudioFilename: 01 Viola.mp3
AudioLeadIn: 2515
PreviewTime: 82486
Countdown: 1
SampleSet: Normal
StackLeniency: 0.7
Mode: 0
LetterboxInBreaks: 1

[Editor]
DistanceSpacing: 1
BeatDivisor: 4
GridSize: 8

[Metadata]
Title:Viola
Artist:Hitomi Shimatani
Creator:Mystearica
Version:Soft
Source:
Tags:MegaManEXE Megaboy

[Difficulty]
HPDrainRate:4
CircleSize:4
OverallDifficulty:4
SliderMultiplier:1.4
SliderTickRate:1.75

[Events]
//Background and Video events
0,0,"viola.jpg"
//Break Periods
2,8911,23130
2,119075,125425
2,207108,219114
//Storyboard Layer 0 (Background)
//Storyboard Layer 1 (Fail)
//Storyboard Layer 2 (Pass)
//Storyboard Layer 3 (Foreground)
//Storyboard Sound Samples
//Background Colour Transformations
3,100,0,0,0

[TimingPoints]
844,491.803278688525,4,1,1,100,1,0
1704,-100,4,1,1,100,0,0
2565,-100,4,1,1,80,0,0
2811,-100,4,1,1,100,0,0
5762,-100,4,1,1,80,0,0
6499,-100,4,1,1,80,0,0
6745,-100,4,1,1,100,0,0
7237,-100,4,1,1,80,0,0
8589,-100,4,1,1,100,0,0
23466,-100,4,2,1,80,0,0
24696,-100,4,2,1,100,0,0
36253,-100,4,2,1,60,0,0
36622,-100,4,2,1,100,0,0
48303,-100,4,2,1,70,0,0
49163,-100,4,2,1,80,0,0
50024,-100,4,2,1,70,0,0
50270,-100,4,2,1,100,0,0
65270,-100,4,2,1,100,0,0
81499,-100,4,1,1,74,0,0
82852,-100,4,1,1,80,0,0
83098,-100,4,1,1,90,0,0
83344,-100,4,1,1,100,0,0
126253,-100,4,2,1,100,0,0
137811,-100,4,1,1,70,0,0
138917,-100,4,2,1,100,0,0
171991,-100,4,1,1,80,0,0
172852,-100,4,1,1,70,0,0
173344,-100,4,1,1,50,0,0
173589,-100,4,1,1,60,0,0
173835,-100,4,1,1,100,0,0
207401,-100,4,1,1,0,0,0
220188,-100,4,2,1,100,0,0
220557,-100,4,1,1,60,0,0
220803,-100,4,2,1,100,0,0
224614,-100,4,1,1,100,0,0
229040,-100,4,1,1,80,0,0
229409,-100,4,1,1,90,0,0
229778,-100,4,1,1,100,0,0
231007,-100,4,1,1,100,0,1
266417,-100,4,1,1,100,0,0

[Colours]
Combo1 : 250,248,146
Combo2 : 255,255,255
Combo3 : 164,198,249
Combo4 : 173,241,143

[HitObjects]
176,128,844,2,0,B|176:80|194:31|256:-12|320:32|336:80|336:144,1,280,4|0
128,336,2565,6,0,B|64:304,1,70,4|4
384,336,3794,2,0,L|448:304,3,70,4|4|4|4
432,208,4778,6,0,B|367:115|253:106,1,210,4|0
80,208,5762,2,0,B|144:115|258:106,1,210,0|0
256,320,6745,2,0,B|256:176,1,140
256,24,7729,6,0,B|192:72,2,70
256,24,8466,2,0,L|320:72,1,70,0|4
176,288,24450,6,0,B|176:336|194:385|256:428|320:384|336:336|336:272,1,280,8|2
480,192,25925,6,0,B|336:192,1,140,0|2
208,144,26909,2,0,B|296:144,2,70
80,96,27893,2,0,B|160:96,1,70,8|0
208,48,28384,2,0,B|352:48,1,140,0|2
464,144,29368,2,0,B|320:144,2,140,0|2|0
256,368,30844,6,0,B|240:320|272:272|256:224,1,140,8|0
128,192,31827,6,0,B|128:263|48:304,1,140,2|0
48,160,32811,2,0,B|58:119|96:96,1,70,2|0
152,125,33303,2,0,B|232:119|277:182,1,140,0|8
384,88,34286,2,0,B|390:168|327:213,1,140,0|2
271,248,35024,2,0,B|143:253|127:376,1,210,0|2
408,352,36253,6,0,B|472:308|472:232,1,140,12|8
432,176,36991,2,0,B|400:157|400:112,1,70
324,242,37729,6,0,B|256:264|183:241,1,140,2|0
56,192,38712,2,0,B|40:157|56:122,1,70,2|0
128,128,39204,2,0,B|206:134|256:80,1,140,0|8
384,128,40188,2,0,B|306:134|256:80,1,140,0|2
256,152,40925,2,0,B|232:224|288:288|256:360,1,210,0|2
64,304,41909,6,0,B|136:304,1,70
448,192,42647,2,0,B|296:192,1,140,8|0
64,80,43630,6,0,B|136:80,2,70,2|0|0
320,192,44614,2,0,B|248:192,1,70,2|0
200,192,45106,2,0,B|56:192,1,140,0|8
296,328,46089,2,0,B|448:328,1,140,0|2
432,56,47073,2,0,B|288:56,1,140,0|2
496,192,48057,6,0,B|424:192,1,70,8|0
360,192,48548,2,8,L|320:192,4,35
56,88,49532,6,0,B|67:50|99:35,2,70,8|8|8
88,224,50516,2,0,B|152:176|129:99,1,140,8|0
360,32,51499,6,0,B|322:19|288:32,1,70,2|0
328,96,51991,2,0,B|310:171|364:230,1,140,0|2
424,192,52729,2,0,B|442:267|388:326,1,140,0|0
328,288,53466,2,0,B|321:323|284:344,1,70,8|0
256,280,53958,2,0,B|194:323|117:298,1,140,0|2
184,176,54942,6,0,B|167:140|186:105,2,70,0|0|2
248,144,55680,2,0,B|464:144,1,210,0|8
392,272,56909,6,0,B|405:307|392:344,3,70,0|0|2|0
330,308,57893,2,0,B|186:308,2,140,0|2|0
256,192,59368,6,0,B|256:120,1,70,8|0
303,199,59860,2,0,B|343:265|302:333,1,140,0|2
211,331,60598,2,0,B|170:264|210:198,1,140,0|0
256,264,61335,6,0,B|256:336,1,70,2|0
320,296,61827,2,0,B|326:212|401:177,1,140,0|8
192,296,62811,2,0,B|186:212|111:177,1,140,0|2
56,152,63548,6,0,B|135:133|167:67,1,140
224,32,64286,2,0,B|296:32,4,70,2|0|0|0|8
224,104,65516,2,0,L|224:168,1,35
224,176,65762,2,0,B|292:209|360:176,2,140,0|2|0
392,336,67237,6,0,B|464:336,2,70,2|0|0
264,272,68221,2,0,B|232:334|150:347,1,140,8|0
157,276,68958,2,0,B|112:274|95:304,1,70,0|2
40,344,69450,2,0,B|5:275|41:205,1,140
106,228,70188,2,0,B|168:185|169:105,1,140,2|0
128,48,70925,6,0,B|91:70|91:115,2,70,0|8|0
200,40,71663,2,0,B|274:47|314:117,2,140,0|2|0
168,112,72893,6,0,B|178:150|224:168,1,70,0|2
280,192,73384,2,0,B|315:211|320:256,3,70,0|8|0|0
352,312,74368,2,0,B|370:347|414:350,1,70,0|2
470,318,74860,2,0,B|515:257|490:182,1,140
426,213,75598,2,0,B|409:137|331:110,1,140,2|0
362,46,76335,2,0,B|324:29|294:57,1,70,0|8
88,192,77319,6,0,B|160:192,1,70,0|2
424,192,78057,2,0,B|352:192,1,70,0|2
256,360,78794,2,0,B|256:288,1,70,0|2
256,290,79286,2,0,B|202:189|305:113|256:14,1,280,0|2
48,192,81007,6,0,B|48:232,3,35
48,192,81499,6,0,B|160:192,2,105,4|4|4
48,192,82483,2,0,B|48:152,2,35
120,80,82975,6,0,B|192:80,1,70
256,104,83466,2,0,B|306:156|391:161,1,140,4|0
256,280,84450,2,0,B|206:228|121:223,1,140,0|0
256,104,85434,2,0,B|256:176,1,70
296,232,85925,2,0,L|330:252,1,35
256,256,86294,2,0,L|256:296,1,35,0|2
216,232,86663,2,0,L|181:252,1,35
152,264,86909,6,0,B|80:264,2,70
360,264,87893,2,0,B|432:264,2,70
222,104,88876,2,0,B|256:88|292:106,1,70
256,168,89368,2,0,B|256:320,2,140,0|0|2
144,88,90843,6,0,B|72:88,1,70
144,88,91335,2,0,B|192:184|321:185|370:84,1,280
480,168,92811,2,0,B|408:168,1,70
288,240,93548,2,0,B|360:240,1,70
240,312,94286,2,0,B|168:312,1,70
136,312,94655,2,0,B|96:312,1,35,0|2
120,240,95024,6,0,B|192:240,1,70
80,152,95762,2,0,B|8:152,1,70
120,64,96499,2,0,B|224:13|326:67,1,210
392,88,97483,6,0,B|432:88,2,35
392,160,97975,2,0,B|352:160,2,35,0|0|4
480,264,98712,6,0,B|444:250|408:264,1,70
344,288,99204,2,0,B|277:321|205:286,1,140
72,288,100188,2,0,B|139:255|211:290,1,140
344,288,101171,2,0,B|308:302|272:288,1,70
240,232,101663,2,0,B|224:200,1,35
152,200,102032,2,0,B|126:175,1,35,0|2
64,216,102401,2,0,B|31:201,1,35,8|0
8,176,102647,6,0,B|40:104,1,70
80,56,103139,2,0,B|147:145|272:113,1,210
336,144,104122,2,0,B|261:167|241:242,1,140
324,352,105106,2,0,B|256:320|184:354,2,140,0|0|2
448,288,106581,6,0,B|448:216,2,70
368,176,107565,2,0,B|368:248,2,70
256,88,108548,2,0,B|256:160,1,70
256,232,109040,2,0,B|256:160,1,70
184,160,109532,2,0,B|24:160,2,140,0|0|2
184,88,110762,6,0,B|197:51|232:40,1,70
330,139,111499,2,0,B|317:176|282:187,1,70
384,288,112237,2,0,B|313:266|243:288,1,140
176,304,112975,2,0,B|105:326|35:304,1,140
120,192,113958,6,0,B|192:192,3,70
240,136,114942,2,0,B|311:93|376:152,1,140
240,248,115925,2,0,B|311:291|376:232,1,140
424,192,116663,6,0,B|384:192,1,35
352,192,116909,2,0,B|280:192,1,70,4|4
144,192,117647,2,0,B|216:192,1,70,4|4
72,192,118384,2,0,B|0:192,2,70,0|0|4
176,152,126745,6,0,B|176:200|194:249|256:292|320:248|336:200|336:136,1,280,8|2
440,56,128221,2,0,B|469:122|439:194,1,140,0|2
368,312,129204,2,0,B|406:301|439:313,2,70
232,328,130188,2,0,B|268:342|303:327,1,70,8|0
266,266,130680,2,0,B|196:241|124:266,1,140,0|2
16,184,131663,2,0,B|82:210|157:183,2,140,0|2|0
136,112,133139,6,0,B|208:84|274:112,1,140,8|0
392,184,134122,2,0,B|320:212|254:184,1,140,2|0
360,280,135106,2,0,B|397:268|430:281,1,70,2|0
455,215,135598,2,0,B|483:143|455:77,1,140,0|8
456,216,136581,2,0,B|431:289|367:321,1,140,0|2
300,339,137319,2,0,B|224:360|148:339|104:284,1,210,0|2
256,264,138548,6,0,B|256:192,1,70,8|0
256,120,139040,2,8,B|256:72,4,35
136,192,140024,6,0,B|136:264,2,70,8|8|8
136,48,141007,2,0,B|142:125|225:148,1,140,8|0
353,101,141991,2,0,B|281:101,1,70,2|0
289,171,142483,2,0,B|325:241|284:306,1,140,0|2
232,352,143221,2,0,B|88:352,1,140
40,304,143958,2,0,B|55:271|39:234,1,70,8|0
91,187,144450,2,0,B|235:187,1,140,0|2
344,272,145434,2,0,B|416:272,2,70,0|0|2
344,272,146171,2,0,B|274:244|209:306|136:271,1,210,0|8
24,192,147401,6,0,B|96:192,3,70,0|0|2|0
168,192,148384,2,0,B|134:123|169:54,2,140,0|2|0
312,192,149860,2,0,B|240:192,1,70,8|0
168,192,150352,2,0,B|134:261|169:330,1,140,0|2
240,328,151089,2,0,B|384:328,1,140
440,288,151827,2,0,B|474:264|482:226,1,70,2|0
448,168,152319,2,0,B|379:139|347:67,1,140,0|8
448,168,153303,2,0,B|379:197|347:269,1,140,0|2
288,224,154040,6,0,B|255:292|178:307,1,140
120,264,154778,2,0,B|48:264,4,70,2|0|0|0|8
176,216,156007,2,0,B|176:176,1,35
176,144,156253,2,0,B|101:122|83:46,2,140,0|2|0
280,48,157729,6,0,B|352:48,2,70,2|0|0
408,104,158712,2,0,B|440:170|410:242,1,140,8|0
344,240,159450,2,0,B|272:240,1,70,0|2
256,312,159942,2,0,B|206:371|123:359,1,140
88,304,160680,2,0,B|119:230|87:164,1,140,2|0
16,168,161417,2,0,B|16:240,2,70,0|8|0
54,108,162155,2,0,B|122:82|192:108,2,140,0|2|0
16,48,163384,6,0,B|88:48,1,70,0|2
160,48,163876,2,0,B|232:48,3,70,0|8|0|0
304,48,164860,2,0,B|376:48,1,70,0|2
376,120,165352,2,0,B|371:196|300:233,1,140
272,168,166089,2,0,B|203:203|198:279,1,140,2|0
264,312,166827,2,0,B|256:354|224:384,1,70,0|8
104,122,167811,6,0,B|174:162,1,70,0|2
407,122,168548,2,0,B|337:162,1,70,0|2
256,360,169286,2,0,B|256:288,1,70,0|2
224,224,169778,2,0,B|176:184|184:128|256:72|328:128|336:184|286:227,1,280,0|2
480,136,171499,6,0,B|480:176,3,35
480,136,171991,6,0,B|445:119|410:154|375:135,2,105,4|4|4
480,136,172975,2,0,L|480:96,2,35
480,32,173466,6,0,B|440:32,3,35
416,48,173958,2,0,B|369:107|280:96,1,140,4|0
160,48,174942,2,0,B|236:82|236:166,1,140
360,224,175925,2,0,B|288:224,1,70
288,296,176417,2,0,B|264:328,1,35
216,272,176786,2,0,L|176:288,1,35,0|2
168,216,177155,2,0,L|128:208,1,35
104,200,177401,6,0,B|32:184,2,70
80,64,178384,2,0,B|8:48,2,70
216,96,179368,2,0,B|288:112,1,70
352,128,179860,2,0,B|388:198|351:265,2,140,0|0|2
480,192,181335,6,0,B|480:264,1,70
480,336,181827,2,0,B|392:296|296:376|200:336,1,280
80,280,183303,2,0,B|152:280,1,70
272,216,184040,2,0,B|200:216,1,70
80,152,184778,2,0,B|152:152,1,70
184,152,185147,2,0,B|224:152,1,35,0|2
288,152,185516,6,0,B|288:80,1,70
416,24,186253,2,0,B|344:24,1,70
408,152,186991,2,0,B|402:227|356:289|276:310,1,210
216,320,187975,6,0,B|216:360,2,35
144,320,188466,2,0,B|104:320,2,35,0|0|4
80,192,189204,6,0,B|80:112,1,70
80,48,189696,2,0,B|152:24|219:49,1,140
216,192,190680,2,0,B|288:216|355:191,1,140
480,136,191663,2,0,B|408:136,1,70
352,88,192155,2,0,B|352:48,1,35
281,53,192524,2,0,B|281:93,1,35,0|2
210,88,192893,2,0,B|210:48,1,35
174,53,193139,6,0,B|99:53,1,70
32,56,193630,2,0,B|11:174|102:247,1,210
48,296,194614,2,0,B|85:364|168:352,1,140
164,211,195598,2,0,B|221:161|212:83,2,140,0|0|2
291,270,197073,6,0,B|219:270,2,70
431,270,198057,2,0,B|503:270,2,70
440,128,199040,2,0,B|404:140|369:127,1,70
400,64,199532,2,0,B|364:52|329:65,1,70
304,128,200024,2,0,B|235:160|165:126,2,140,0|0|2
336,192,201253,6,0,B|280:240,1,70
200,352,201991,2,0,B|128:328,1,70
88,200,202729,2,0,B|24:72,1,140
88,48,203466,2,0,B|150:173,1,140
221,52,204450,6,0,B|293:52,3,70
344,104,205434,2,0,B|256:216,1,140
168,104,206417,2,0,B|256:216,1,140
424,296,220434,6,0,B|352:296,1,70,0|8
296,256,220925,2,0,B|236:212|161:237,1,140,0|2
32,184,221909,2,0,B|92:140|167:165,1,140,0|2
296,112,222893,2,0,B|236:68|161:93,1,140,0|2
32,48,223876,2,0,B|104:48,1,70,0|0
464,48,224860,6,0,B|464:120,1,70,0|8
400,240,225598,2,0,B|400:160,1,70
400,136,225966,2,0,B|360:136,1,35,0|8
296,136,226335,2,0,B|263:204|299:273,1,140
320,296,226950,2,0,B|320:336,1,35,0|8
184,368,227565,2,0,B|100:365|80:283,1,140
72,216,228303,2,0,B|32:216,2,35,0|0|4
72,144,228794,2,0,B|112:144,1,35
144,144,229040,2,0,B|164:89|141:35,2,105,4|4|4
352,192,230516,6,0,B|363:227|351:262,1,70
288,224,231007,2,0,B|144:224,1,140,4|0
40,312,231991,2,0,B|184:312,1,140
320,344,232975,2,0,B|357:356|391:343,1,70,8|0
448,304,233466,2,0,B|472:272,1,35,8|0
416,224,233835,2,0,L|392:256,1,35,0|10
344,200,234204,2,0,B|368:168,1,35
368,136,234450,6,0,B|368:64,2,70
224,136,235434,2,0,B|296:136,2,70
80,136,236417,2,0,B|152:136,1,70
150,65,236909,2,0,B|6:65,2,140,8|8|10
150,205,238384,6,0,B|150:277,1,70
150,345,238876,2,0,B|277:352|288:233|406:236,1,280
488,128,240352,2,0,B|416:128,1,70
280,128,241089,2,0,B|352:128,1,70
208,128,241827,2,0,B|136:128,1,70
104,128,242196,2,0,B|64:128,1,35,0|2
24,184,242565,6,0,B|10:218|25:254,1,70
160,216,243303,2,0,B|119:202|87:218,1,70
91,355,244040,2,0,B|208:347|244:229,1,210
313,231,245024,6,0,B|313:279,2,35
383,231,245516,2,0,B|383:271,2,35,0|0|4
480,56,246253,6,0,B|446:42|411:56,1,70
344,80,246745,2,0,B|329:152|252:179,1,140
120,136,247729,2,0,B|129:211|216:248,1,140
344,264,248712,2,0,B|332:302|293:318,1,70,8|0
240,352,249204,2,0,L|200:352,1,35,8|0
155,302,249573,2,0,L|115:302,1,35,0|10
70,252,249942,2,0,L|30:252,1,35
35,216,250188,6,0,B|112:216,1,70
176,216,250680,2,0,B|291:177|303:62,1,210
240,32,251663,2,0,B|384:96,1,140
496,144,252647,2,0,B|368:208,2,140,8|8|10
408,344,254122,6,0,B|480:344,2,70
264,344,255106,2,0,B|192:344,2,70
336,224,256089,2,0,B|264:224,1,70
336,224,256581,2,0,B|408:224,1,70
336,224,257073,2,0,B|336:80,2,140,0|0|2
264,224,258303,6,0,B|192:224,1,70
56,224,259040,2,0,B|128:224,1,70
96,88,259778,2,0,B|166:57|234:89,1,140
296,120,260516,2,0,B|366:151|434:119,1,140
384,328,261499,6,0,B|328:272,3,70
280,328,262483,2,0,B|176:224,1,140
152,96,263466,2,0,B|256:200,1,140
320,192,264204,6,0,L|360:192,1,35
392,192,264450,2,0,B|464:192,1,70,4|4
462,51,265188,2,0,B|462:123,1,70,4|4
321,121,265925,2,0,B|393:121,2,70
16,192,268139,6,0,B|48:200|88:192,1,70,10|12
496,192,269368,2,0,B|459:184|426:192,4,70,4|4|4|4|4
256,24,271089,6,0,B|246:59|256:95,1,70,8|4
256,360,272073,2,0,B|267:326|256:288,1,70,0|4
112,192,272811,2,0,B|177:217|252:192,1,140,4|4
376,184,273671,2,0,B|323:165|272:185,1,105,4|4
