osu file format v7

[General]
AudioFilename: 01 Viola.mp3
AudioLeadIn: 2504
PreviewTime: 82486
Countdown: 1
SampleSet: Normal
StackLeniency: 0.7
Mode: 0
LetterboxInBreaks: 1

[Editor]
DistanceSpacing: 0.699999988079071
BeatDivisor: 4
GridSize: 8

[Metadata]
Title:Viola
Artist:Hitomi Shimatani
Creator:Mystearica
Version:Serene
Source:
Tags:MegaManEXE Megaboy

[Difficulty]
HPDrainRate:2
CircleSize:4
OverallDifficulty:2
SliderMultiplier:1.2
SliderTickRate:0.5

[Events]
//Background and Video events
0,0,"viola.jpg"
//Break Periods
2,8912,22890
//Storyboard Layer 0 (Background)
//Storyboard Layer 1 (Fail)
//Storyboard Layer 2 (Pass)
//Storyboard Layer 3 (Foreground)
//Storyboard Sound Samples
//Background Colour Transformations
3,100,0,0,0

[TimingPoints]
844,491.803278688525,4,1,1,100,1,0
23958,-100,4,2,1,100,0,0
53466,-200,4,2,1,100,0,0
55065,-100,4,2,1,100,0,0
61458,-200,4,2,1,100,0,0
63425,-100,4,2,1,100,0,0
64901,-100,4,1,1,100,0,0
65393,-200,4,1,1,100,0,0
66868,-100,4,2,1,100,0,0
69204,-200,4,2,1,100,0,0
70803,-100,4,2,1,100,0,0
81253,-100,4,1,1,100,0,0
83466,-100,4,1,1,100,0,1
118876,-100,4,1,1,100,0,0

[Colours]
Combo1 : 250,248,146
Combo2 : 255,255,255
Combo3 : 164,198,249
Combo4 : 173,241,143

[HitObjects]
256,40,844,1,4
256,336,2565,6,0,B|256:272,1,60,0|4
216,112,3794,5,4
256,96,4040,2,0,B|256:160,2,60,0|4|0
296,112,4778,1,4
412,161,5516,6,0,B|412:225,1,60,8|4
312,296,6499,5,0
312,296,6745,2,0,B|241:296|222:229,1,120,0|4
140,214,7729,2,0,B|109:229|80:213,1,60
82,172,8221,2,0,B|112:159|141:172,2,60,0|0|4
256,192,24450,5,8
480,80,25925,6,0,B|420:109|359:77,1,120,2|0
288,40,26909,1,2
288,40,27155,2,0,B|269:138|164:158,1,180,0|2
88,168,28384,1,0
136,232,28876,2,0,B|119:262|84:264,2,60,2|0|0
216,224,29860,1,0
280,280,30352,5,8
400,56,31827,5,2
368,136,32319,2,0,B|336:193|368:254,1,120,0|2
366,250,33057,1,0
464,168,33794,2,0,B|496:225|464:286,1,120,2|0
400,336,34778,2,0,B|336:336,2,60,2|0|0
256,248,36253,5,8
16,336,37729,6,0,B|70:365|133:336,1,120,2|0
184,272,38712,2,0,B|248:272,1,60,2|0
136,208,39696,2,0,B|82:179|19:208,1,120,2|0
80,272,40680,1,2
80,272,40925,2,0,B|144:272,1,60
256,152,42155,5,8
24,48,43630,5,2
88,104,44122,1,0
152,48,44614,2,0,B|183:31|210:48,1,60,2|0
295,138,45598,2,0,B|234:173|177:135,1,120,2|0
128,200,46581,2,0,B|113:229|128:264,1,60,2|0
125,258,47073,1,0
200,295,47565,6,0,B|255:329|316:295,1,120,8|0
256,240,48548,2,0,B|256:208,4,30,8|8|8|8|8
336,216,49532,6,0,B|400:216,1,60,8|8
440,216,50024,2,0,B|473:156|439:101,1,120,12|0
384,160,51007,1,8
360,80,51499,6,0,B|232:80,1,120
192,152,52483,1,8
192,152,52729,2,0,B|320:152,1,120
327,234,53712,2,0,B|256:273|181:232,1,150
144,216,55188,1,0
112,192,55434,2,0,B|85:136|114:74,1,120,0|8
256,232,57155,6,0,B|256:296,2,60,0|8|0
256,192,57893,2,0,B|256:64,2,120,8|0|0
337,212,59368,5,8
368,240,59614,1,0
408,256,59860,2,0,B|408:128,1,120,8|0
408,96,60598,2,0,B|348:67|289:98,1,120
256,24,61581,2,0,B|232:80|280:168|256:240,1,210
258,231,63548,5,2
192,280,64040,2,0,B|232:336,2,60,0|8|0
152,280,64778,2,0,B|112:336,2,60,8|8|8
171,242,65516,2,0,B|187:194|155:138|171:90,1,150
256,80,67237,5,2
256,80,67483,2,0,B|320:80,1,60,0|8
360,152,68221,2,0,B|296:152,1,60,2|0
256,224,68958,1,2
344,224,69450,2,0,B|417:251|493:222,1,150
448,152,70925,6,0,B|512:152,2,60,2|0|0
416,128,71663,2,0,B|358:98|295:131,1,120,8|0
224,152,72647,1,8
224,152,72893,6,0,B|160:152,1,60,0|0
123,141,73384,2,0,B|67:165|3:149,1,120,0|0
5,233,74368,2,0,B|66:217|122:241,1,120,0|0
192,192,75352,1,0
280,192,75843,2,0,B|319:169|351:214|400:191,1,120,0|0
256,120,77319,6,0,B|256:184,1,60,0|8
322,232,78057,2,0,B|266:200,1,60,8|0
191,232,78794,2,0,B|246:200,1,60,0|8
256,288,79532,1,8
313,349,80024,2,0,B|256:384|197:347,1,120,8|8
256,288,81007,1,12
256,200,81499,2,0,B|256:104,2,90,8|8|8
384,200,82975,5,0
384,200,83221,1,0
384,200,83466,2,0,B|411:136|483:141,1,120,4|0
440,64,84450,2,0,B|375:94|329:43,1,120
256,80,85434,2,0,B|189:70|144:120,2,120,2|2|2
256,160,86909,6,0,B|320:160,2,60,0|0|4
144,224,88139,2,0,B|208:224,1,60
256,288,88876,2,0,B|192:288,1,60
168,320,89368,2,0,B|108:350|50:318,2,120,2|2|2
256,352,90843,5,0
296,344,91089,1,0
336,352,91335,1,4
464,352,92073,2,0,B|496:296,1,60
440,232,92811,2,0,B|408:288,1,60
328,264,93548,2,0,B|360:208,1,60
296,152,94286,2,0,B|232:256,1,120,0|2
208,288,95024,6,0,B|144:288,1,60
104,216,95762,2,0,B|168:216,1,60
208,144,96499,2,0,B|80:144,1,120
88,104,97237,2,0,B|216:104,2,120,0|0|2
88,16,98712,6,0,B|24:16,2,60,0|0|4
216,16,99942,2,0,B|152:16,1,60
208,88,100680,2,0,B|280:88,1,60
312,88,101171,2,0,B|346:143|311:207,2,120,2|2|2
384,40,102647,5,0
403,77,102893,1,0
412,117,103139,1,4
392,240,103876,1,0
384,280,104122,2,0,B|363:339|296:360,1,120
256,368,104860,1,0
212,358,105106,2,0,B|149:339|128:280,2,120,2|2|2
256,288,106581,6,0,B|256:224,2,60,0|0|4
256,160,107811,2,0,B|320:160,1,60
256,96,108548,2,0,B|192:96,1,60
256,32,109286,2,0,B|320:32,1,60
256,96,110024,2,0,B|240:136|272:176|256:216,1,120,0|2
242,254,110762,5,0
225,292,111007,2,0,B|165:327|108:289,1,120
93,253,111745,2,0,B|128:193|90:136,1,120
24,192,112729,1,0
24,192,112975,2,0,B|-11:245|23:305,2,120,0|0|0
48,160,114204,2,0,B|112:160,3,60,0|0|0|4
192,184,115434,1,0
201,267,115925,2,0,B|257:310|314:265,1,120
256,200,116909,5,4
256,200,117155,1,4
270,117,117647,2,0,B|334:93,1,60,4|4
246,117,118384,2,0,B|182:93,2,60,4|4|4
