osu file format v5

[General]
AudioFilename: Black_Jack_21_-_Destiny_Taiyou_no_Hana.mp3
AudioLeadIn: 0
PreviewTime: -1
Countdown: 1
SampleSet: Normal
StackLeniency: 0.7
Mode: 0
LetterboxInBreaks: 1
EditorBookmarks: 76283,111420,167516

[Metadata]
Title:Destiny ~Taiyou no Hana~
Artist:Hitomi Shimatani
Creator:sk3ith90
Version:Normal
Source:
Tags:

[Difficulty]
HPDrainRate:5
CircleSize:6
OverallDifficulty:5
SliderMultiplier:1.4
SliderTickRate:2

[Events]
//Background and Video events
0,0,"KiriJa__BJ__by_LauraZel.jpg"
//Break Periods
2,94566,107960
2,113674,114535
2,120249,121111
2,176758,191796
//Storyboard Layer 0 (Background)
//Storyboard Layer 1 (Failing)
//Storyboard Layer 2 (Passing)
//Storyboard Layer 3 (Foreground)
//Storyboard Sound Samples
//Background Colour Transformations
3,100,163,162,255

[TimingPoints]
667.493150684932,821.917808219178,4,1,0,100,1,0

[HitObjects]
256,192,667,12,0,7242
80,80,8064,5,0
432,80,8886,1,0
432,304,9708,1,0
80,304,10530,1,0
256,192,11352,1,0
224,176,12174,2,2,B|256:144|288:176,3,70
32,192,13818,6,2,B|64:112|112:64|176:48|256:48,1,280
248,48,15667,1,0
352,64,16078,1,0
432,112,16489,1,0
464,192,16900,2,2,B|448:256|400:320|320:336|272:336,1,245
248,335,20393,6,2,B|176:336|112:320|48:272|32:192,2,280
352,304,24503,1,0
416,240,25325,2,2,B|464:176,3,70
226,48,26968,6,2,B|192:48|112:64|80:96|48:160,1,210
96,272,28612,1,0
144,304,28818,1,0
264,336,29229,1,0
368,288,29640,1,0
448,207,30051,2,2,B|432:144|384:80|336:64|256:64,1,245
263,48,33544,6,2,B|336:48|400:64|464:112|480:192,2,280
160,80,37654,1,0
96,144,38476,2,2,B|48:208,3,70
256,64,40119,5,4
400,96,40941,1,4
432,192,41763,1,4
400,288,42585,1,4
400,288,42996,1,4
256,320,43407,1,4
112,288,44229,1,4
80,192,45051,1,4
112,80,45872,1,4
112,80,46283,1,4
256,48,46694,5,0
368,64,47105,1,0
400,80,47311,1,0
400,112,47516,1,0
400,192,47927,1,0
384,224,48133,1,0
352,256,48338,1,0
320,272,48544,1,0
288,256,48749,1,0
272,224,48955,1,0
240,208,49160,1,0
192,144,49571,5,0
192,112,49776,1,0
160,96,49982,1,0
96,96,50392,5,0
64,112,50598,1,0
64,144,50803,1,0
96,224,51215,1,0
112,256,51421,1,0
144,288,51626,1,0
176,304,51832,1,0
208,288,52037,1,0
224,256,52243,1,0
256,240,52448,1,0
16,64,53270,6,2,B|96:64,1,70
144,64,54092,2,2,B|224:64,1,70
272,64,54914,2,2,B|352:64,1,70
400,64,55735,2,2,B|480:64,1,70
480,320,56557,6,2,B|400:320,1,70
352,320,57379,2,2,B|272:320,1,70
224,320,58201,2,2,B|144:320,1,70
96,320,59022,2,2,B|16:320,1,70
128,192,59845,2,2,B|320:80,1,210
389,198,61489,2,2,B|208:304,1,210
256,192,63133,12,0,65599
80,64,66420,6,2,B|160:64,1,70
208,64,67242,2,2,B|208:144,1,70
256,176,68064,2,2,B|336:176,3,70
432,320,69708,6,2,B|352:320,1,70
304,320,70530,2,2,B|304:240,1,70
256,176,71352,2,2,B|176:176,3,70
144,80,72996,2,2,B|368:80,1,210
352,80,74640,2,2,B|352:304,1,210
352,288,76283,2,2,B|128:288,1,210
144,288,77927,2,2,B|144:64,1,210
192,160,79571,6,2,B|192:112|240:96,1,70
287,102,80393,2,2,B|320:112|320:160,1,70
319,225,81215,2,2,B|320:272|287:281,1,70
224,281,82037,2,2,B|192:272|192:225,1,70
192,224,82859,6,2,B|192:272|240:288,1,70
287,281,83681,2,2,B|320:272|320:224,1,70
319,158,84503,2,2,B|320:112|287:102,1,70
224,102,85325,2,2,B|192:112|192:158,1,70
48,160,86146,2,2,B|272:160,1,210
464,224,87790,2,2,B|240:224,1,210
144,192,89434,5,4
240,144,89845,1,4
272,144,90256,1,4
368,192,90667,1,4
288,240,91078,2,2,B|218:240,3,70
256,192,92722,12,0,94366
48,80,109160,6,2,B|272:80,1,210
256,144,110804,2,2,B|224:176,1,35
256,208,111420,2,2,B|320:256,1,70
256,304,112242,2,2,B|480:304,1,210
464,80,115735,6,2,B|240:80,1,210
256,144,117379,2,2,B|288:176,1,35
256,208,117995,2,2,B|192:256,1,70
256,304,118817,2,2,B|32:304,1,210
128,96,122311,5,0
240,32,123133,1,0
352,96,123955,1,0
416,192,124777,1,4
400,240,125188,1,4
368,272,125599,5,4
256,336,126421,1,0
144,272,127243,1,0
80,176,128065,1,4
96,128,128476,1,4
128,80,128886,6,2,B|192:128,1,70
192,128,129708,2,2,B|256:80,1,70
256,80,130530,2,2,B|320:128,1,70,2|2
320,128,131352,2,2,B|384:80,1,70
400,224,132174,6,2,B|336:272,1,70
336,272,132996,2,2,B|272:224,1,70
272,224,133818,2,2,B|208:272,1,70,2|2
208,272,134640,2,2,B|144:224,1,70
111,175,135462,6,2,B|143:111|207:79|303:79,1,210
303,111,137105,2,2,B|272:175|208:207|129:206,1,210
208,288,138749,2,2,B|240:224|304:192|400:192,1,210
400,224,140392,2,2,B|369:288|305:320|226:319,1,210
224,128,142037,6,2,B|304:128,1,70
224,128,142653,1,4
304,128,142859,2,2,B|224:128,1,70
234,192,143681,6,2,B|304:192,1,70
224,192,144297,1,4
294,192,144503,2,2,B|224:192,1,70
224,256,145325,6,2,B|304:256,1,70
224,256,145941,1,4
304,256,146147,2,2,B|224:256,1,70
256,192,146968,12,0,148201
432,64,148612,6,2,B|362:64,1,70
304,64,149434,2,2,B|304:134,1,70
256,176,150256,2,2,B|186:176,3,70
80,320,151900,6,2,B|150:320,1,70
208,320,152722,2,2,B|208:250,1,70
256,176,153544,2,2,B|326:176,3,70
368,80,155188,2,2,B|158:80,1,210
160,80,156832,2,2,B|160:290,1,210
160,288,158475,2,2,B|370:288,1,210
368,288,160119,2,2,B|368:78,1,210
319,158,161763,6,2,B|320:112|287:102,1,70
224,102,162585,2,2,B|192:112|192:157,1,70
192,225,163407,2,2,B|192:272|224:280,1,70
287,281,164229,2,2,B|320:272|320:224,1,70
319,225,165051,6,2,B|320:272|287:281,1,70
224,280,165873,2,2,B|192:272|192:225,1,70
192,157,166695,2,2,B|192:112|224:101,1,70
287,101,167517,2,2,B|320:112|320:158,1,70
464,160,168338,2,2,B|254:160,1,210
48,224,169982,2,2,B|258:224,1,210
368,192,171626,5,4
272,144,172037,1,4
240,144,172448,1,4
144,192,172859,1,4
224,240,173270,2,2,B|294:240,3,70
256,192,174914,12,0,176558
256,192,192996,5,4
192,144,194640,1,4
320,144,196283,1,4
320,240,197927,1,4
192,240,199571,1,4
192,144,201215,1,4
256,192,202859,1,4
256,192,204503,12,4,205735
80,320,206146,6,2,B|160:320,1,70
176,320,206763,1,0
208,320,206968,2,2,B|208:240,1,70
208,208,207585,1,0
256,208,207790,2,2,B|336:208,3,70
432,64,209434,6,2,B|352:64,1,70
336,64,210051,1,0
304,64,210256,2,2,B|304:144,1,70
304,192,210872,1,0
256,208,211078,2,2,B|176:208,3,70
144,304,212722,2,2,B|368:304,1,210
354,304,214160,1,0
352,304,214366,2,2,B|352:80,1,210
352,94,215804,1,0
352,96,216009,2,2,B|128:96,1,210
142,96,217448,1,0
144,96,217653,2,2,B|144:320,1,210
192,224,219297,6,2,B|192:272|240:288,1,70
256,288,219914,1,0
287,282,220119,2,2,B|320:272|320:224,1,70
319,159,220941,2,2,B|320:112|287:103,1,70
256,96,221557,1,0
224,103,221763,2,2,B|192:112|192:159,1,70
192,160,222585,6,2,B|192:112|240:96,1,70
256,96,223201,1,0
287,103,223407,2,2,B|320:112|320:160,1,70
319,226,224229,2,2,B|320:272|287:282,1,70
256,288,224845,1,0
224,282,225051,2,2,B|192:272|192:226,1,70
48,224,225872,2,2,B|272:224,1,210
464,160,227516,2,2,B|240:160,1,210
144,192,229160,5,4
240,240,229571,1,4
272,240,229982,1,4
368,192,230393,1,4
288,144,230804,2,2,B|218:144,3,70
256,192,232448,12,0,234092
