osu file format v5

[General]
AudioFilename: Black_Jack_21_-_Destiny_Taiyou_no_Hana.mp3
AudioLeadIn: 0
PreviewTime: -1
Countdown: 1
SampleSet: Normal
StackLeniency: 0.7
Mode: 0
LetterboxInBreaks: 1
EditorBookmarks: 10530,76283,167516,211078,224229

[Metadata]
Title:Destiny ~Taiyou no Hana~
Artist:Hitomi Shimatani
Creator:sk3ith90
Version:Insane
Source:
Tags:

[Difficulty]
HPDrainRate:8
CircleSize:6
OverallDifficulty:9
SliderMultiplier:1.4
SliderTickRate:2

[Events]
//Background and Video events
0,0,"KiriJa__BJ__by_LauraZel.jpg"
//Break Periods
2,94566,108560
2,113263,114930
2,119839,121711
2,178401,192396
//Storyboard Layer 0 (Background)
//Storyboard Layer 1 (Failing)
//Storyboard Layer 2 (Passing)
//Storyboard Layer 3 (Foreground)
//Storyboard Sound Samples
//Background Colour Transformations
3,100,163,162,255

[TimingPoints]
667.493150684932,821.917808219178,4,1,0,100,1,0

[HitObjects]
256,192,667,12,0,7242
80,80,8064,5,0
432,80,8886,5,0
432,304,9708,5,0
80,304,10530,5,0
256,192,11352,5,0
256,192,11763,12,0,13407
48,48,13818,5,0
160,48,14023,1,0
176,48,14126,1,0
192,48,14229,1,0
320,48,14434,1,0
336,48,14537,1,0
352,48,14640,1,0
464,48,15051,1,0
464,128,15462,5,0
352,128,15667,1,0
336,128,15770,1,0
320,128,15873,1,0
192,128,16078,1,0
176,128,16181,1,0
160,128,16284,1,0
48,128,16695,1,0
48,256,17105,5,0
160,256,17310,1,0
176,256,17413,1,0
192,256,17516,1,0
320,256,17721,1,0
336,256,17824,1,0
352,256,17927,1,0
464,256,18338,1,0
464,336,18749,5,0
352,336,18954,1,0
336,336,19057,1,0
320,336,19160,1,0
192,336,19365,1,0
176,336,19468,1,0
160,336,19571,1,0
48,336,19982,1,0
96,64,20393,5,0
96,128,20598,1,0
96,144,20701,1,0
96,160,20804,1,0
96,224,21009,1,0
96,240,21112,1,0
96,256,21215,1,0
96,320,21626,1,0
192,320,22037,5,0
192,256,22242,1,0
192,240,22345,1,0
192,224,22448,1,0
192,160,22653,1,0
192,144,22756,1,0
192,128,22859,1,0
192,64,23270,1,0
320,64,23681,5,0
320,128,23886,1,0
320,144,23989,1,0
320,160,24092,1,0
320,224,24297,1,0
320,240,24400,1,0
320,256,24503,1,0
320,320,24914,1,0
416,320,25325,5,0
416,256,25530,1,0
416,240,25633,1,0
416,224,25736,1,0
416,160,25941,1,0
416,144,26044,1,0
416,128,26147,1,0
416,64,26558,1,0
256,48,26968,5,0
336,48,27175,1,0
352,48,27277,1,0
416,48,27482,1,0
416,64,27584,1,0
416,128,27790,1,0
416,144,27893,1,0
416,160,27996,1,0
416,176,28098,1,0
416,192,28201,1,0
256,336,28612,5,0
176,336,28819,1,0
160,336,28921,1,0
96,336,29126,1,0
96,320,29228,1,0
96,256,29434,1,0
96,240,29537,1,0
96,224,29640,1,0
96,208,29742,1,0
96,192,29845,1,0
256,336,30256,5,0
336,336,30463,1,0
352,336,30565,1,0
416,336,30770,1,0
416,320,30872,1,0
416,256,31078,1,0
416,240,31181,1,0
416,224,31284,1,0
416,208,31386,1,0
416,192,31489,1,0
256,48,31900,5,0
176,48,32107,1,0
160,48,32209,1,0
96,48,32414,1,0
96,64,32516,1,0
96,128,32722,1,0
96,144,32825,1,0
96,160,32928,1,0
96,176,33030,1,0
96,192,33133,1,0
96,192,33544,5,0
96,208,33647,1,0
96,224,33749,1,0
96,240,33852,1,0
96,256,33955,1,0
96,320,34161,1,0
96,336,34263,1,0
160,336,34468,1,0
176,336,34570,1,0
256,336,34777,1,0
416,192,35188,5,0
416,176,35291,1,0
416,160,35393,1,0
416,144,35496,1,0
416,128,35599,1,0
416,64,35805,1,0
416,48,35907,1,0
352,48,36112,1,0
336,48,36214,1,0
256,48,36421,1,0
416,192,36831,5,0
416,176,36934,1,0
416,160,37036,1,0
416,144,37139,1,0
416,128,37242,1,0
416,64,37448,1,0
416,48,37550,1,0
352,48,37755,1,0
336,48,37857,1,0
256,48,38064,1,0
96,192,38475,5,0
96,208,38578,1,0
96,224,38680,1,0
96,240,38783,1,0
96,256,38886,1,0
96,320,39092,1,0
96,336,39194,1,0
160,336,39399,1,0
176,336,39501,1,0
256,336,39708,1,0
96,80,40119,5,0
192,80,40530,1,0
256,80,40735,1,0
320,80,40941,1,0
464,192,41352,1,0
336,192,41763,1,0
256,192,41968,1,0
176,192,42174,1,0
64,192,42585,1,4
64,192,42996,1,4
416,304,43407,5,0
320,304,43818,1,0
256,304,44023,1,0
192,304,44229,1,0
48,192,44640,1,0
176,192,45051,1,0
256,192,45256,1,0
336,192,45462,1,0
448,192,45873,1,4
448,192,46284,1,4
144,96,46694,5,0
176,96,46900,1,0
208,96,47105,1,0
240,96,47311,1,0
272,96,47516,1,0
304,96,47722,1,0
336,96,47927,1,2
368,96,48133,1,0
368,160,48338,5,0
336,160,48544,1,0
304,160,48749,1,0
272,160,48955,1,0
240,160,49160,1,0
208,160,49366,1,0
176,160,49571,1,2
144,160,49777,1,0
144,224,49982,5,0
176,224,50188,1,0
208,224,50393,1,0
240,224,50599,1,0
272,224,50804,1,0
304,224,51010,1,0
336,224,51215,1,2
368,224,51421,1,0
368,288,51626,5,0
336,288,51832,1,0
304,288,52037,1,0
272,288,52243,1,0
240,288,52448,1,0
208,288,52654,1,0
176,288,52859,1,2
144,288,53065,1,0
96,288,53270,6,2,B|96:208,1,70
96,208,54092,2,2,B|176:208,1,70
176,208,54914,2,2,B|176:128,1,70
176,128,55735,2,2,B|256:128,1,70
256,128,56557,2,2,B|256:48,1,70
256,48,57379,2,2,B|336:48,1,70
416,48,58201,2,2,B|416:96,1,35
416,96,58612,2,2,B|416:144,1,35
416,144,59023,2,2,B|416:192,1,35
416,192,59434,2,2,B|416:240,1,35
416,288,59845,6,2,B|336:288,1,70
336,288,60667,2,2,B|336:208,1,70
336,208,61489,2,2,B|256:208,1,70
256,208,62310,2,2,B|256:128,1,70
256,128,63132,2,2,B|176:128,1,70
176,128,63954,2,2,B|176:208,1,70
272,144,64777,5,0
288,176,64879,1,0
304,208,64982,1,0
288,240,65085,1,0
256,256,65188,1,0
224,240,65290,1,0
208,208,65393,1,0
224,176,65496,1,0
240,144,65599,1,4
256,192,65804,12,0,66009
144,144,66420,6,2,B|160:112|208:112,1,70
303,112,67242,2,2,B|346:112|362:144,1,70,2|2
361,240,68064,2,2,B|346:272|303:271,1,70,2|2
208,271,68886,2,2,B|166:272|150:240,1,70,2|2
256,192,69708,2,2,B|176:192,1,70
256,192,70530,2,2,B|336:192,1,70
256,192,71352,2,2,B|256:112,1,70
256,192,72174,2,2,B|256:272,1,70
256,64,72996,2,2,B|320:112|352:176|352:256,1,210
256,320,74640,2,2,B|192:272|160:208|160:128,1,210
224,144,76283,2,2,B|304:144,1,70
304,160,76900,1,0
288,176,77105,2,2,B|218:176,1,70
208,192,77722,1,0
224,208,77927,2,2,B|304:208,1,70
304,224,78544,1,0
288,240,78749,2,2,B|218:240,1,70
218,160,79571,6,2,B|298:160,3,70
288,160,81215,2,2,B|218:160,3,70
224,144,82859,2,2,B|304:144,1,70
304,160,83476,1,0
288,176,83681,2,2,B|218:176,1,70
288,160,84503,2,2,B|218:160,3,70
416,96,86146,5,0
448,176,86557,1,0
448,208,86763,1,0
432,272,87379,2,2,B|352:304,1,70
304,320,88201,1,0
288,320,88407,1,0
96,160,89434,2,2,B|96:240,1,70
112,240,90051,1,0
128,224,90256,2,2,B|128:154,1,70
160,160,91078,2,2,B|160:240,1,70
176,240,91695,1,0
192,224,91900,2,2,B|192:154,1,70
256,192,92722,12,4,94366
320,48,109160,6,2,B|384:80|400:160,1,140
384,224,110804,1,0
352,256,111010,1,0
320,272,111420,1,0
272,272,111831,1,0
192,239,112242,2,2,B|129:208|113:130,1,140
256,64,115530,5,0
256,64,115735,2,2,B|176:64|176:160,1,140
224,224,117379,1,0
288,256,117585,1,0
368,240,117996,1,0
416,192,118407,1,0
431,112,118818,2,2,B|432:20|352:20,1,140
96,80,122311,5,4
192,80,122722,1,0
256,80,122927,1,0
320,80,123133,1,0
464,192,123544,1,0
336,192,123955,1,0
256,192,124160,1,0
176,192,124366,1,0
64,192,124777,1,4
64,192,125188,1,4
416,304,125599,5,4
320,304,126010,1,0
256,304,126215,1,0
192,304,126421,1,0
48,192,126832,1,0
112,192,127242,1,0
128,192,127345,1,0
144,192,127448,1,0
192,192,127653,1,0
208,192,127756,1,0
224,192,127859,1,0
272,192,128064,1,0
288,192,128167,1,0
304,192,128270,1,0
352,192,128475,1,0
368,192,128578,1,0
384,192,128681,1,0
416,80,128886,5,4
320,80,129297,1,0
256,80,129502,1,0
192,80,129708,1,0
48,192,130119,1,0
176,192,130530,1,0
256,192,130735,1,0
336,192,130941,1,0
448,192,131352,1,4
448,192,131763,1,4
96,304,132174,5,4
192,304,132585,1,0
256,304,132790,1,0
320,304,132996,1,0
464,192,133407,1,0
336,192,133818,1,0
256,192,134023,1,0
176,192,134229,1,0
64,192,134640,1,4
80,112,135051,1,0
80,112,135153,1,0
80,112,135256,1,0
160,48,135462,5,0
240,48,135872,1,0
320,64,136078,1,0
320,64,136181,1,0
384,112,136386,1,0
384,112,136489,1,0
432,176,136694,1,0
416,256,137105,5,0
352,208,137515,1,0
272,176,137721,1,0
272,176,137824,1,0
192,160,138029,1,0
192,160,138132,1,0
112,176,138337,1,0
160,240,138749,5,0
240,272,139159,1,0
320,272,139365,1,0
320,272,139468,1,0
400,240,139673,1,0
400,240,139776,1,0
464,192,139981,1,0
256,48,140393,5,0
256,64,140496,1,0
256,80,140599,1,0
256,128,140804,1,0
256,144,140907,1,0
256,160,141010,1,0
256,208,141215,1,0
256,224,141318,1,0
256,240,141421,1,0
256,288,141626,1,0
256,304,141729,1,0
256,320,141832,1,0
416,64,142037,5,4
416,128,142447,1,0
416,192,142653,1,0
416,208,142756,1,0
416,224,142859,1,0
416,240,142962,1,0
416,256,143064,1,0
416,320,143270,1,0
96,64,143681,5,0
96,128,144091,1,0
96,192,144297,1,0
96,208,144400,1,0
96,224,144503,1,0
96,240,144606,1,0
96,256,144708,1,0
96,320,144914,1,0
256,320,145325,5,0
256,256,145735,1,0
256,192,145941,1,0
256,176,146044,1,0
256,160,146147,1,0
256,144,146250,1,0
256,128,146352,1,0
256,64,146558,1,0
64,64,146968,5,4
448,64,147277,5,4
448,320,147585,5,4
64,320,147790,5,4
256,192,147996,12,4,148201
256,48,148612,5,0
176,48,148819,1,0
160,48,148921,1,0
96,48,149126,1,0
96,64,149228,1,0
96,128,149434,1,0
96,144,149537,1,0
96,160,149640,1,0
96,176,149742,1,0
96,192,149845,1,0
256,48,150256,5,0
336,48,150463,1,0
352,48,150565,1,0
416,48,150770,1,0
416,64,150872,1,0
416,128,151078,1,0
416,144,151181,1,0
416,160,151284,1,0
416,176,151386,1,0
416,192,151489,1,0
256,336,151900,5,0
336,336,152107,1,0
352,336,152209,1,0
416,336,152414,1,0
416,320,152516,1,0
416,256,152722,1,0
416,240,152825,1,0
416,224,152928,1,0
416,208,153030,1,0
416,192,153133,1,0
256,336,153544,5,0
176,336,153751,1,0
160,336,153853,1,0
96,336,154058,1,0
96,320,154160,1,0
96,256,154366,1,0
96,240,154469,1,0
96,224,154572,1,0
96,208,154674,1,0
96,192,154777,1,0
112,128,155188,5,0
128,128,155291,1,0
144,128,155393,1,0
160,128,155496,1,0
176,128,155599,1,0
240,128,155805,1,0
256,128,155907,1,0
256,192,156112,1,0
256,208,156214,1,0
256,288,156421,1,0
400,128,156831,5,0
384,128,156934,1,0
368,128,157036,1,0
352,128,157139,1,0
336,128,157242,1,0
272,128,157448,1,0
256,128,157550,1,0
256,192,157755,1,0
256,208,157857,1,0
256,288,158064,1,0
256,320,158475,5,0
256,304,158578,1,0
256,288,158680,1,0
256,272,158783,1,0
256,256,158886,1,0
256,192,159092,1,0
256,176,159194,1,0
256,112,159399,1,0
256,96,159501,1,0
256,32,159708,1,0
384,64,160119,5,0
416,80,160222,1,0
432,112,160325,1,0
416,144,160427,1,0
384,160,160530,1,0
352,144,160633,1,0
320,160,160735,1,0
320,192,160838,1,0
352,208,160941,1,0
384,224,161044,1,0
400,256,161146,1,0
368,272,161249,1,0
336,288,161352,1,4
368,240,161763,6,2,B|352:272|304:272,1,70
209,272,162585,2,2,B|166:272|150:240,1,70,2|2
151,144,163407,2,2,B|166:112|209:113,1,70,2|2
304,113,164229,2,2,B|346:112|362:144,1,70,2|2
256,192,165051,2,2,B|336:192,1,70
256,192,165667,1,0
256,192,165873,2,2,B|176:192,1,70
256,192,166489,1,0
256,192,166695,2,2,B|256:272,1,70
256,192,167311,1,0
256,192,167517,2,2,B|256:112,1,70
256,320,168339,2,2,B|192:272|160:208|160:128,1,210
176,64,169777,1,0
256,64,169983,2,2,B|320:112|352:176|352:256,1,210
224,224,171626,2,2,B|224:144,1,70
240,144,172243,1,0
256,160,172448,2,2,B|256:230,1,70
288,224,173270,2,2,B|288:144,1,70
304,144,173887,1,0
320,160,174092,2,2,B|320:230,1,70
256,192,174914,12,4,176557
208,64,176968,5,0
240,80,177071,1,0
272,96,177174,1,0
256,128,177276,1,0
224,144,177379,1,0
192,160,177482,1,0
192,192,177585,1,0
224,208,177687,1,0
256,192,177790,1,0
288,208,177893,1,0
304,240,177995,1,0
288,272,178098,1,0
256,288,178201,1,4
96,288,192996,5,4
96,192,193818,1,0
144,112,194640,1,4
160,96,194845,1,0
256,64,195462,1,0
416,288,196283,5,4
416,192,197105,1,0
368,112,197927,1,4
352,96,198132,1,0
256,64,198749,1,0
256,304,199571,5,4
256,208,200393,1,0
256,144,201215,1,4
256,112,201420,1,0
256,48,202037,1,0
64,320,202859,5,4
448,320,203270,5,4
448,64,203681,5,4
64,64,204092,5,4
272,144,204503,5,0
288,176,204605,1,0
304,208,204708,1,0
288,240,204811,1,0
256,256,204914,1,0
224,240,205016,1,0
208,208,205119,1,0
224,176,205222,1,0
240,144,205325,1,4
256,192,205530,12,4,205735
309,271,206146,6,2,B|352:272|368:240,1,70
209,272,206763,1,0
209,272,206866,1,0
209,272,206968,2,2,B|166:272|150:240,1,70,2|2
208,112,207790,2,2,B|166:112|151:144,1,70,2|2
304,113,208407,1,0
304,112,208509,1,0
304,113,208612,2,2,B|346:112|362:144,1,70,2|2
128,256,209434,5,0
192,256,209640,1,0
208,256,209742,1,0
224,256,209845,1,0
240,256,209948,1,0
256,256,210051,1,0
320,256,210257,1,4
384,256,210667,1,4
384,128,211078,5,0
320,128,211284,1,0
304,128,211386,1,0
288,128,211489,1,0
272,128,211592,1,0
256,128,211695,1,0
192,128,211901,1,4
128,128,212311,1,4
256,192,212722,5,0
256,176,212825,1,0
256,160,212927,1,0
256,144,213030,1,0
256,128,213133,1,0
256,64,213339,1,0
256,48,213441,1,0
192,48,213646,1,0
176,48,213748,1,0
96,48,213955,1,0
256,192,214366,5,0
272,192,214469,1,0
288,192,214571,1,0
304,192,214674,1,0
320,192,214777,1,0
384,192,214983,1,0
400,192,215085,1,0
400,256,215290,1,0
400,272,215392,1,0
400,352,215599,1,0
256,192,216009,5,0
256,208,216112,1,0
256,224,216214,1,0
256,240,216317,1,0
256,256,216420,1,0
256,320,216626,1,0
256,336,216728,1,0
192,336,216933,1,0
176,336,217035,1,0
96,336,217242,1,0
256,192,217653,5,0
240,192,217756,1,0
224,192,217858,1,0
208,192,217961,1,0
192,192,218064,1,0
128,192,218270,1,0
112,192,218372,1,0
112,128,218577,1,0
112,112,218679,1,0
112,32,218886,1,0
112,288,219297,5,0
64,192,219708,1,0
112,112,220016,1,0
192,48,220223,1,0
192,48,220325,1,0
288,64,220530,1,0
400,96,220941,5,0
448,192,221352,1,0
400,272,221660,1,0
320,336,221867,1,0
320,336,221969,1,0
224,320,222174,1,0
256,256,222585,5,0
352,192,222996,1,0
288,112,223201,1,0
288,112,223304,1,0
288,112,223406,1,0
192,80,223818,1,0
256,128,224229,5,0
160,192,224640,1,0
224,272,224845,1,0
224,272,224948,1,0
224,272,225050,1,0
320,304,225462,1,0
256,48,225872,5,0
256,128,226282,1,0
240,208,226488,1,0
240,208,226591,1,0
192,272,226796,1,0
192,272,226899,1,0
128,320,227104,1,0
256,48,227516,5,0
256,128,227926,1,0
272,208,228132,1,0
272,208,228235,1,0
320,272,228440,1,0
320,272,228543,1,0
384,320,228748,1,0
232,218,229160,6,2,B|288:176,1,70,2|2
232,218,229777,1,0
288,176,229982,2,2,B|224:224,1,70,2|2
368,192,230804,5,0
352,224,230907,1,0
320,240,231010,1,0
288,224,231112,1,0
272,192,231215,1,0
288,160,231318,1,0
272,128,231420,1,0
240,128,231523,1,0
224,160,231626,1,0
208,192,231729,1,0
176,208,231831,1,0
160,176,231934,1,0
144,144,232037,1,0
256,320,232448,5,0
256,304,232551,1,0
256,288,232653,1,0
256,272,232756,1,0
256,256,232859,1,0
256,192,233065,1,0
256,176,233167,1,0
256,112,233372,1,0
256,96,233474,1,0
256,32,233681,1,0
256,192,234092,5,4
256,192,234297,12,4,235325
