osu file format v5

[General]
AudioFilename: 20 Battle! Trainer.mp3
AudioLeadIn: 2000
PreviewTime: 348
Countdown: 1
SampleSet: Soft
StackLeniency: 0.7
Mode: 0
LetterboxInBreaks: 1

[Metadata]
Title:Pokemon Battle! (D/P/Pt)
Artist:Hitomi Sato, Junichi Masuda
Creator:Shinxyn
Version:Trainer
Source:Pokemon
Tags:

[Difficulty]
HPDrainRate:3
CircleSize:4
OverallDifficulty:3
SliderMultiplier:1.1
SliderTickRate:2

[Events]
//Background and Video events
0,0,"Trainer.png"
//Break Periods
//Storyboard Layer 0 (Background)
//Storyboard Layer 1 (Failing)
//Storyboard Layer 2 (Passing)
//Storyboard Layer 3 (Foreground)
//Storyboard Sound Samples
//Background Colour Transformations
3,100,163,162,255

[TimingPoints]
354,652.173913043478,4,2,0,100,1,0

[Colours]
Combo1 : 255,255,0
Combo2 : 5,240,5
Combo3 : 5,5,240
Combo4 : 240,5,5
Combo5 : 255,150,0

[HitObjects]
192,160,1658,2,0,L|320:288,1,165
328,296,2962,1,4
232,304,3940,5,2
232,272,4267,1,2
232,208,4919,2,0,L|232:176,4,27.5,0|0|0|0|2
88,128,7201,5,2
120,128,7527,1,2
120,192,8180,1,0
168,192,8669,1,0
216,192,9158,2,0,L|296:192,1,55
336,192,10136,2,0,L|336:144,4,27.5,0|0|0|0|2
368,288,11767,5,2
336,272,12093,1,2
280,240,12745,2,0,L|152:240,1,110,0|4
224,120,14701,5,0
256,136,15027,1,0
280,152,15354,1,0
256,216,16006,2,0,L|256:296,1,55
208,224,16984,5,4
208,256,17310,1,4
144,144,18614,5,2
144,192,19104,1,2
96,168,19593,2,2,L|96:280,1,110
120,296,20571,2,2,L|200:296,1,55
208,296,21223,2,2,L|256:296,2,27.5
272,296,22201,2,2,L|320:296,2,27.5
336,296,23180,1,2
256,192,23832,12,0,25788
112,256,26440,6,0,L|112:304,2,27.5
144,256,27093,2,2,L|144:208,2,27.5
176,256,27745,2,0,L|176:304,2,27.5
240,256,28723,5,0
272,256,29049,1,2
272,160,30027,5,2
240,160,30353,1,0
240,56,31332,5,0
272,56,31658,1,2
336,128,32636,5,2
336,160,32962,1,2
336,288,34267,6,0,L|208:288,1,110
226,288,35245,1,0
192,288,35571,1,0
128,288,36223,2,2,L|128:256,2,18.3333333333333
80,288,36875,5,0
80,224,37527,2,0,L|80:88,1,110
144,112,38832,2,2,L|144:80,2,18.3333333333333
184,112,39484,2,0,L|184:240,3,110,0|2|0|2
185,224,41767,1,2
201,248,42093,1,0
217,272,42419,1,2
241,288,42745,1,0
273,288,43071,1,2
305,288,43397,1,2
336,288,43723,6,0,L|336:112,1,165,0|2
200,128,46006,1,2
200,256,47310,1,0
104,256,48288,1,0
72,256,48614,1,2
96,120,49919,6,0,L|192:72|264:104,1,165
280,96,51223,2,4,L|376:96,2,82.5
280,128,52527,6,0,L|328:208|280:272,1,165
248,264,53832,2,4,L|152:264,2,82.5
248,232,55136,6,0,L|168:168|200:104,1,165
224,112,56440,1,4
272,112,56930,1,4
320,112,57419,1,4
256,192,57745,12,0,60353
256,96,61658,5,4
256,144,62147,1,4
256,192,62636,1,4
424,192,64267,5,4
376,192,64756,1,4
328,192,65245,1,4
256,344,66875,5,4
256,296,67364,1,4
256,248,67853,1,4
80,192,69484,5,4
128,192,69973,1,4
176,192,70462,1,4
208,192,70788,6,0,B|160:288|288:336,1,165
312,352,72093,2,0,B|408:384|456:272,1,165,0|0
472,232,73397,2,0,B|504:120|392:88,1,165,0|0
360,72,74701,2,0,B|264:40|232:168,1,165
192,192,76006,5,2
232,224,76495,1,0
312,200,77310,1,2
272,168,77799,1,0
192,192,78614,5,2
232,224,79104,1,0
312,200,79919,1,2
272,168,80408,1,0
224,104,81223,5,2
192,120,81549,1,0
176,152,81875,1,0
176,184,82201,1,0
192,216,82527,1,2
224,232,82853,1,0
256,232,83180,1,0
288,232,83506,1,0
320,216,83832,5,2
336,184,84158,1,0
336,152,84484,1,0
320,120,84810,1,0
288,104,85136,2,0,L|256:104|256:208,1,110
256,216,86114,1,2
256,216,86277,1,2
