osu file format v5

[General]
AudioFilename: 32 Battle! Gym Leader.mp3
AudioLeadIn: 0
PreviewTime: -1
Countdown: 1
SampleSet: Soft
StackLeniency: 0.7
Mode: 0
LetterboxInBreaks: 1

[Metadata]
Title:Pokemon Battle! (D/P/Pt)
Artist:Hitomi Sato, Junichi Masuda
Creator:Shinxyn
Version:Gym Leader
Source:Pokemon
Tags:

[Difficulty]
HPDrainRate:4
CircleSize:4
OverallDifficulty:4
SliderMultiplier:1.2
SliderTickRate:2

[Events]
//Background and Video events
0,0,"GymLeader.png"
//Break Periods
//Storyboard Layer 0 (Background)
//Storyboard Layer 1 (Failing)
//Storyboard Layer 2 (Passing)
//Storyboard Layer 3 (Foreground)
//Storyboard Sound Samples
//Background Colour Transformations
3,100,163,162,255

[TimingPoints]
3016,666.666666666667,4,2,0,100,1,0

[Colours]
Combo1 : 215,215,215
Combo2 : 235,141,233
Combo3 : 10,10,250

[HitObjects]
416,288,3016,2,0,L|416:192,1,90
416,128,4015,1,0
416,56,4516,1,0
344,56,5016,2,0,L|264:56,1,60,0|2
280,104,5682,5,0
280,176,6182,1,0
280,248,6682,1,0
280,320,7182,1,0
208,320,7682,2,0,L|128:320,1,60,0|2
96,320,8349,5,2
96,248,8849,1,2
96,176,9349,1,2
168,176,9849,1,2
240,176,10349,2,0,L|240:112,1,60,2|2
240,64,11015,6,0,L|336:64,1,90
328,136,12015,2,0,L|328:232,1,90
400,224,13015,2,0,L|400:160,1,60
400,112,13682,5,0
336,80,14182,1,2
264,72,14682,1,2
264,72,14849,1,0
264,72,15015,1,2
192,128,15516,2,0,L|112:184|168:232,1,150
192,128,16849,1,0
256,64,17349,6,0,B|208:160|288:224|240:304,1,240
288,296,19015,5,0
352,256,19516,1,0
408,208,20016,1,2
408,208,20182,1,0
408,208,20349,1,2
408,136,20849,1,0
408,88,21182,2,0,B|360:88,3,30
256,192,22182,12,0,24016
192,240,25349,6,0,B|296:240,2,100,0|0|0
232,168,27016,6,0,B|344:168,2,100
200,168,28349,1,0
200,168,28571,1,2
160,168,28849,1,2
136,168,29016,1,0
40,40,30349,6,0,B|104:88,1,60
96,112,31016,2,0,B|48:176,1,60
80,208,31682,2,0,B|144:256,1,60
176,256,32349,2,0,B|240:192,1,60
304,160,33349,1,2
304,160,33682,1,0
480,64,35016,5,0
480,160,35682,1,4
384,160,36348,5,4
384,160,36682,1,0
432,160,37015,1,4
432,256,37682,5,0
432,160,38348,1,4
336,160,39015,5,4
336,208,39348,1,4
336,256,39682,1,4
112,224,40349,6,0,B|48:192|88:144,1,90
136,80,41349,1,4
176,56,41683,2,0,B|248:40|272:96,1,90
312,120,42682,1,4
320,168,43016,2,0,B|312:240|248:248,1,90
208,272,44015,1,4
160,272,44350,2,0,B|104:256|88:184,1,90
160,96,45682,5,0
176,112,45849,1,0
192,128,46015,1,0
208,144,46182,1,0
312,248,47015,5,0
296,232,47182,1,0
280,216,47349,1,0
264,200,47516,1,0
136,248,48349,5,2
152,232,48515,1,2
168,216,48682,1,2
184,200,48849,1,0
328,224,49682,5,0
312,240,49849,1,0
296,256,50015,2,0,B|232:320,1,60,0|4
176,240,51015,6,0,L|176:128,1,90,0|0
176,80,52015,2,0,B|272:80,1,90
264,152,53015,2,0,B|264:216,1,60,0|4
304,240,53682,6,0,B|304:128,1,90
304,80,54682,2,0,B|200:80,1,90
216,152,55682,2,0,B|216:216,1,60,0|4
160,200,56349,5,2
160,272,56849,1,2
208,328,57349,1,2
248,272,57849,1,2
248,200,58349,2,0,L|248:168,4,30,2|2|2|0|2
304,64,60015,5,0
304,112,60349,1,0
304,136,60516,1,0
304,208,61015,2,0,L|304:240,2,30
352,208,61682,1,0
400,208,62015,2,0,L|432:208,1,30
400,136,62682,6,2,L|400:88,2,30,2|2|2
352,136,63349,1,2
328,136,63515,1,2
104,280,65349,5,0
104,232,65682,1,0
104,208,65849,1,0
104,136,66349,2,0,L|184:136,1,60
208,136,67015,2,0,L|240:136,4,20,0|0|0|0|4
360,136,68349,5,2
360,136,68460,1,2
360,136,68571,1,2
360,168,68793,1,4
232,168,69682,6,0,L|232:40,1,120
136,48,71015,2,0,L|136:192,1,120
136,168,71849,1,0
136,240,72349,1,0
136,264,72516,1,0
136,336,72850,1,0
136,336,73016,1,0
184,336,73349,5,2
232,336,73682,1,2
256,336,73849,1,2
304,336,74182,1,2
328,336,74349,1,2
248,280,75015,5,0
320,216,75682,2,0,L|320:136,1,60
312,112,76349,2,0,L|232:80,1,60
208,88,77015,2,0,L|144:112,1,60
152,160,77682,2,0,L|152:232,1,60
152,264,78349,2,0,L|152:312,4,30
336,304,80349,6,0,L|384:304|360:256,1,90,0|0
320,208,81348,1,0
288,168,81682,1,2
288,168,81849,1,2
136,96,83016,6,0,L|136:48|96:72,1,90,0|0
104,144,84016,1,0
104,192,84349,1,0
104,192,84516,1,0
104,192,85682,5,0
176,192,86182,1,0
144,304,87016,1,0
168,304,87182,1,0
168,352,87516,1,0
192,352,87682,1,0
240,352,88016,1,2
256,192,88349,12,0,90682
