osu file format v5

[General]
AudioFilename: 64 Battle! Elite Four.mp3
AudioLeadIn: 0
PreviewTime: -1
Countdown: 1
SampleSet: Normal
StackLeniency: 0.7
Mode: 0
LetterboxInBreaks: 1

[Metadata]
Title:Pokemon Battle! (D/P/Pt)
Artist:Hitomi Sato, Junichi Masuda
Creator:Shinxyn
Version:Elite Four
Source:Pokemon
Tags:

[Difficulty]
HPDrainRate:3
CircleSize:5
OverallDifficulty:5
SliderMultiplier:1.9
SliderTickRate:2

[Events]
//Background and Video events
0,0,"Elite Four.png"
//Break Periods
//Storyboard Layer 0 (Background)
//Storyboard Layer 1 (Failing)
//Storyboard Layer 2 (Passing)
//Storyboard Layer 3 (Foreground)
//Storyboard Sound Samples
//Background Colour Transformations
3,100,163,162,255

[TimingPoints]
3026,666.666666666667,4,1,0,75,1,0

[Colours]
Combo1 : 128,128,255
Combo2 : 182,182,182
Combo3 : 128,255,0
Combo4 : 250,18,18

[HitObjects]
96,272,3026,1,0
176,192,3526,1,0
256,272,4026,1,0
176,192,4526,1,0
256,112,5026,1,0
256,112,5359,1,0
256,112,5692,5,4
256,224,6192,1,0
352,176,6692,1,0
352,288,7192,1,0
352,176,7692,1,0
352,176,8025,1,0
352,176,8359,5,4
272,256,8859,1,0
352,176,9359,1,0
424,256,9859,1,0
352,176,10359,1,0
352,176,10692,1,0
352,176,11026,5,4
240,144,11526,1,0
128,144,12026,1,0
240,144,12526,1,0
240,256,13026,1,0
240,256,13359,1,0
160,256,13692,5,4
160,144,14192,1,0
48,144,14692,1,0
48,144,14859,1,0
48,144,15026,1,0
48,256,15526,1,0
120,256,15859,2,0,L|120:336,3,47.5
224,256,16859,1,4
288,160,17359,6,2,B|336:160,2,47.5
400,160,18192,1,2
192,136,19026,5,0
248,232,20025,1,0
248,232,20192,1,0
248,232,20359,1,0
192,136,20859,5,0
120,136,21192,1,0
120,136,21359,1,0
120,136,21525,1,0
120,136,21692,1,0
120,248,22192,1,4
488,256,24026,5,0
408,256,24359,1,0
408,216,24525,1,0
408,136,24859,1,0
408,96,25025,1,0
328,96,25359,5,4
328,168,25692,1,4
328,200,25859,1,4
328,296,26192,2,4,L|256:296,1,47.5,4|0
104,208,27025,5,0
104,264,27192,2,0,L|8:264,1,95
8,208,27692,1,0
104,208,28025,5,2
176,152,28359,1,2
216,152,28525,1,2
280,152,28859,1,2
312,152,29025,1,2
312,248,29360,5,0
392,296,29693,1,0
392,248,29860,1,0
392,152,30192,1,0
392,200,30359,1,0
256,192,30526,12,0,31692
176,168,32359,5,0
176,128,32526,1,0
248,128,32859,1,0
248,168,33026,1,0
256,192,33359,12,0,34359
344,224,35025,5,0
368,248,35192,1,0
392,224,35359,1,0
368,200,35526,1,0
248,224,36025,1,4
224,200,36192,1,4
248,168,36359,5,0
224,136,36525,1,0
248,104,36692,1,0
272,136,36859,1,0
160,136,37359,1,4
160,96,37525,1,0
128,112,37692,5,6
88,112,37859,1,0
88,152,38026,1,2
88,224,38359,1,4
88,296,38692,2,2,L|136:296,1,47.5,2|0
176,296,39025,5,2
176,296,39192,1,2
176,296,39359,1,2
248,296,39692,1,4
320,296,40026,2,2,L|384:296,1,47.5,2|0
368,256,40359,5,2
368,256,40526,1,0
368,256,40692,1,2
368,176,41026,1,4
288,176,41359,2,2,L|208:176,1,47.5,2|0
200,176,41692,5,2
160,176,41859,1,2
120,176,42026,1,2
40,176,42359,1,4
40,96,42692,2,2,L|104:96,1,47.5,2|0
128,96,43026,5,2
128,96,43192,1,2
128,96,43359,1,2
200,96,43692,1,4
256,320,44692,5,0
328,256,45026,1,0
256,192,45359,1,0
184,176,45692,5,0
144,160,45859,1,0
104,144,46026,1,0
72,168,46192,2,0,B|72:248,1,47.5
96,240,46526,1,0
128,256,46692,1,0
160,272,46859,1,0
192,280,47026,6,0,B|392:280,2,190
192,232,48526,1,0
192,184,48692,1,0
192,136,48859,2,0,B|272:136,1,47.5
288,136,49192,1,0
288,184,49359,1,0
288,232,49526,1,0
288,280,49692,2,0,B|416:200|264:128,2,190
176,192,51526,5,2
176,48,52026,1,2
320,48,52526,5,0
320,192,53026,1,2
320,192,53359,1,0
320,192,53692,1,2
320,328,54192,5,2
176,328,54692,1,0
176,192,55192,1,2
176,56,55692,5,0
176,56,56026,1,2
240,120,56359,5,2
240,120,56526,1,2
200,208,56859,5,2
200,208,57026,1,2
288,256,57359,5,2
288,256,57526,1,2
328,168,57859,5,2
328,168,58026,1,2
248,120,58359,6,0,B|192:176,1,47.5
184,192,58692,6,0,B|224:232,1,47.5
256,248,59026,5,0
288,216,59192,1,2
320,176,59359,1,0
288,144,59526,1,2
136,144,60026,5,0
128,192,60192,1,2
152,232,60359,1,0
184,264,60526,1,0
216,168,60859,2,0,B|184:168,3,23.75
216,104,61359,1,0
264,120,61526,1,2
296,152,61692,1,0
312,248,62026,1,2
312,248,62192,1,0
336,184,64026,6,0,B|312:160,2,23.75
296,208,64359,1,2
248,200,64526,1,0
216,168,64692,1,0
200,120,64859,1,2
216,264,65359,5,2
176,232,65526,1,0
144,192,65692,1,0
136,144,65859,1,0
224,120,66192,5,2
264,144,66359,1,2
304,176,66526,1,2
328,216,66692,2,2,B|336:248|328:272,1,47.5,2|0
296,296,67026,6,2,B|272:328|216:320,1,47.5
208,312,67359,1,0
168,288,67526,1,2
256,192,68359,12,0,69359
48,224,69692,6,0,B|107:159,1,71.25
144,120,70192,2,0,B|184:72,1,47.5
288,120,71026,6,2,B|350:184,1,71.25,2|2
475,197,71526,2,0,B|520:240,1,47.5,2|0
272,304,72359,5,0
224,296,72526,1,0
176,216,72860,2,0,B|176:152,1,47.5
248,112,73360,6,0,B|248:224,1,95
320,208,73942,1,0
320,280,74193,1,0
272,280,74360,1,0
176,280,74693,5,0
176,280,75026,2,0,B|176:88,1,190
56,48,77026,5,0
208,48,77692,1,2
248,72,77915,1,0
288,104,78137,1,0
328,136,78359,1,2
264,184,78692,1,4
200,224,79026,1,0
80,128,79693,1,4
248,56,80359,5,0
248,56,80526,1,0
248,104,80692,1,0
248,152,80859,2,0,B|192:152,2,47.5,0|0|0
296,152,81359,6,0,L|294:200|148:200,1,190
152,152,82192,6,0,B|80:152,2,47.5
152,152,82692,1,0
152,152,82859,1,0
152,200,83026,6,0,L|152:248|224:248,1,95
248,248,83526,2,0,L|312:248,2,47.5
248,296,84026,5,0
296,296,84192,1,0
344,296,84359,2,0,B|448:296,2,95
344,296,85109,5,0
344,296,85193,1,0
344,248,85359,1,0
344,200,85525,1,0
296,200,85692,5,0
152,200,86192,1,0
152,56,86692,5,0
152,104,86859,1,2
240,80,87192,1,2
288,80,87359,1,0
376,56,87692,1,4
376,152,88026,1,0
280,152,88359,1,2
136,152,88859,1,2
136,248,89192,1,2
256,192,89359,12,0,90359
256,192,90692,5,4
