osu file format v5

[General]
AudioFilename: pk4_brain.mp3
AudioLeadIn: 0
PreviewTime: 50816
Countdown: 1
SampleSet: Normal
StackLeniency: 0.7
Mode: 0
LetterboxInBreaks: 1

[Editor]
Bookmarks: 15231,34178,44994,50599,55572,65835,69783,75842
DistanceSpacing: 0.800000011920929
BeatDivisor: 2
GridSize: 32

[Metadata]
Title:Frontier Brain Battle
Artist:Hitomi Sato, Junichi Masuda
Creator:Mogget
Version:Normal
Source:Pokemon Platinum
Tags:pokemon platinum battle frontier brain ds nintendo

[Difficulty]
HPDrainRate:4
CircleSize:5
OverallDifficulty:4
SliderMultiplier:0.7
SliderTickRate:2

[Events]
//Background and Video events
0,0,"pokemon_1024x768.jpg"
//Break Periods
2,30589,34121
2,55535,59384
//Storyboard Layer 0 (Background)
//Storyboard Layer 1 (Fail)
//Storyboard Layer 2 (Pass)
//Storyboard Layer 3 (Foreground)
//Storyboard Sound Samples
//Background Colour Transformations
3,100,193,255,132

[TimingPoints]
2599.72289364707,315.789473684211,4,1,0,100,1,0
50599,315.789473684211,4,1,0,100,1,1
70790,315.789473684211,4,1,0,100,1,0

[Colours]
Combo1 : 249,119,81
Combo2 : 150,253,87
Combo3 : 82,120,254

[HitObjects]
64,96,2599,2,0,B|96:64|224:64|352:64|352:96,1,280,0|4
448,256,5126,6,0,B|416:288|416:352|160:288,1,280,0|4
480,128,7652,6,0,B|480:64|384:32|288:32|160:64|32:288,1,560,0|4
224,64,11757,6,0,B|320:64,1,70
352,64,12389,2,0,B|384:96,2,35,0|0|4
320,128,13178,1,0
256,192,13652,2,2,B|224:224,1,35
192,192,13968,1,0
128,160,14283,1,4
288,96,15231,6,0,B|352:128,1,70,0|8
320,192,15862,1,0
320,256,16178,1,0
224,288,16810,1,8
160,256,17126,1,0
224,224,17441,1,0
224,160,17757,5,0
224,64,18231,2,0,B|224:96,2,17.5
288,64,18704,1,4
128,288,20283,5,0
96,224,20599,1,8
128,160,20915,2,0,B|192:160,3,35
224,224,21862,2,2,B|256:192,6,35,8|0|0|0|0|0|0
128,160,23441,1,0
192,128,23757,1,4
288,64,25336,6,2,B|384:64|448:96|448:192,1,210
416,224,26599,1,0
320,288,27231,1,0
128,128,27862,5,2
320,128,28494,1,2
160,192,29126,1,2
288,192,29599,1,2
192,256,30073,1,2
256,256,30389,1,4
128,192,35441,5,4
256,192,37968,5,4
416,192,40494,5,4
384,128,40810,1,0
352,192,41126,1,0
320,128,41441,1,0
288,192,41757,6,2,B|288:224,2,17.5
256,160,42073,2,0,B|256:128,2,17.5
224,192,42389,2,2,B|224:224,2,17.5
192,160,42704,2,0,B|192:128,2,17.5
160,192,43020,5,0
192,256,43336,1,0
256,224,43652,1,0
320,192,43968,1,0
352,128,44283,1,0
256,96,44915,1,0
192,96,45231,1,0
224,160,45547,1,4
160,256,46178,6,2,B|256:256,1,70
288,256,46810,2,0,B|384:256,1,70
384,192,47441,2,2,B|384:96,1,70
256,192,48073,12,4,49968
96,96,50599,6,0,B|128:64|192:64|224:128,1,140,0|4
320,64,51862,1,0
384,96,52177,1,0
320,128,52493,2,0,B|384:192,1,70,4|0
320,224,53125,6,2,B|288:256|256:224|256:192|288:160|320:160|320:192,1,140
416,192,54388,2,2,B|448:224|416:256,1,70
352,288,55020,2,2,B|320:320|288:288,1,70,2|6
160,128,60704,5,0
224,96,61020,1,0
