osu file format v5

[General]
AudioFilename: pk4_brain.mp3
AudioLeadIn: 0
PreviewTime: 50816
Countdown: 1
SampleSet: Normal
StackLeniency: 0.7
Mode: 0
LetterboxInBreaks: 1

[Editor]
Bookmarks: 15211,34178,44994,50599,55572,65835,69783,75842
DistanceSpacing: 0.800000011920929
BeatDivisor: 4
GridSize: 32

[Metadata]
Title:Frontier Brain Battle
Artist:Hitomi Sato, Junichi Masuda
Creator:Mogget
Version:Hard
Source:Pokemon Platinum
Tags:pokemon platinum battle frontier brain ds nintendo

[Difficulty]
HPDrainRate:4
CircleSize:6
OverallDifficulty:4
SliderMultiplier:0.7
SliderTickRate:2

[Events]
//Background and Video events
0,0,"pokemon_1024x768.jpg"
//Break Periods
2,31693,34122
2,40674,44207
2,69904,74522
//Storyboard Layer 0 (Background)
//Storyboard Layer 1 (Fail)
//Storyboard Layer 2 (Pass)
//Storyboard Layer 3 (Foreground)
//Storyboard Sound Samples
//Background Colour Transformations
3,100,193,255,132

[TimingPoints]
2607.72289364707,315.789473684211,4,1,0,100,1,0
25178,-50,4,1,0,100,0,0
34178,-100,4,1,0,100,0,0
50599,315.789473684211,4,1,0,100,1,1
70820,315.789473684211,4,1,0,100,1,0
86342,-50,4,1,0,100,0,0
88395,-100,4,1,0,100,0,0
88868,-50,4,1,0,100,0,0

[Colours]
Combo1 : 249,119,81
Combo2 : 150,253,87
Combo3 : 82,120,254

[HitObjects]
128,96,2617,2,0,B|288:96,3,140,0|0|0|2
384,256,5134,2,0,B|224:256,3,140,0|0|0|2
64,288,7660,2,0,B|64:128,2,140
128,320,9239,2,2,B|224:320,1,70
256,288,9870,2,2,B|256:224,1,35
256,224,10186,2,0,B|320:96,3,140,0|0|0|2
160,128,12713,5,0
224,128,13028,1,0
224,128,13186,1,2
256,160,13502,2,0,B|224:192,3,35,0|0|0|6
128,256,15239,5,2
128,192,15555,1,8
192,160,15870,2,0,B|224:192,3,35,2|2|8|0
256,128,16660,1,2
288,128,16818,2,0,B|288:192,1,35,8|0
320,192,17134,2,2,B|352:224,1,35
320,256,17449,2,0,B|288:288,1,35,8|0
256,256,17765,1,6
192,224,18081,1,8
160,192,18239,2,2,B|192:192,2,17.5
192,160,18713,1,12
256,96,19028,6,0,B|256:128,16,17.5,2|0|0|0|8|0|0|0|2|0|0|0|8|0|0|0|6
256,192,20607,5,8
192,192,20923,1,2
192,224,21081,1,0
192,256,21239,1,8
192,288,21397,1,4
128,288,21713,1,2
96,256,21871,1,8
96,224,22028,1,0
96,192,22186,2,0,B|64:160,4,35,2|2|8|0|4
128,160,22976,1,2
160,128,23134,1,8
192,128,23292,2,0,B|224:128,2,17.5,2|2|2
256,192,23765,1,12
256,192,24081,12,4,25028
256,192,25344,6,0,B|256:160|288:96|352:64,1,140
384,64,25818,2,10,B|416:64|480:64|480:224,1,210,0|8
416,288,26607,2,0,B|448:352|416:384|352:352,1,140
288,288,27239,2,2,B|320:224|288:192|192:224,1,140,0|8
128,256,27870,1,0
32,64,28502,1,2
224,160,29134,1,0
384,128,29607,1,2
416,256,30081,1,10
320,320,30397,5,2
288,288,30555,1,0
256,256,30712,1,0
288,224,30870,1,0
320,192,31028,1,0
288,160,31186,1,0
256,128,31344,2,10,B|256:96|192:64,1,70,2|8
256,192,35450,5,0
256,192,35608,1,4
256,192,36397,1,0
256,192,36555,1,4
256,192,37976,5,0
256,192,38134,1,4
256,192,38923,1,0
256,192,39081,1,4
256,192,40502,5,6
64,96,45555,5,0
64,128,45713,1,0
64,160,45871,1,6
96,224,46187,5,0
96,256,46345,1,0
96,288,46502,1,6
192,96,46818,5,0
192,128,46976,1,0
192,160,47134,1,6
224,224,47450,5,0
224,256,47608,1,0
224,288,47766,1,6
288,352,48239,5,8
320,288,48555,1,2
288,224,48871,1,8
320,160,49187,1,2
288,96,49502,1,8
320,32,49818,2,0,B|224:32,2,70,2|8|6
256,64,50756,5,0
320,96,51230,2,0,B|256:128,1,70
224,160,51862,1,0
224,192,52020,1,0
192,256,52493,2,2,B|160:288|160:320,1,70,2|4
224,384,53125,6,0,B|256:384,1,105
352,352,53756,1,2
384,288,54072,1,0
416,256,54230,1,0
416,192,54546,1,0
384,160,54704,2,2,B|352:160|288:160|256:96,1,140,0|4
192,32,55809,6,2,B|96:96,1,105
64,128,56599,1,0
64,192,56914,1,0
96,192,57072,1,2
96,256,57388,1,0
160,256,57704,2,0,B|192:192,1,70,0|4
160,160,58177,2,2,B|160:128|192:96|224:64|256:96|320:160,1,210
320,224,59441,2,0,B|288:224,3,17.5
256,224,59914,2,0,B|224:224|160:192|192:160,1,105,0|4
128,256,61020,5,0
192,288,61335,1,0
256,256,61651,1,0
288,192,61967,1,2
288,160,62125,1,2
224,96,62599,1,0
160,64,62914,1,4
128,128,63230,2,2,B|160:192|192:224,1,105,2|0
192,256,63862,1,0
192,320,64177,5,0
224,320,64335,1,0
288,288,64651,1,0
320,256,64809,2,2,B|352:192,2,70,6|0|6
320,192,65756,1,0
288,160,66072,6,2,B|288:128|224:128,1,70
160,128,66704,1,0
128,64,67020,1,0
96,96,67177,1,0
96,160,67493,2,2,B|96:192|160:192,1,70,2|4
128,256,68283,2,0,B|192:288|256:320|320:288|384:224,1,280
160,160,75872,5,0
160,32,76504,1,2
224,32,76820,1,0
256,32,76977,1,0
288,32,77135,1,0
288,64,77293,1,0
288,96,77451,1,6
224,192,78083,6,0,B|192:224,2,35
224,224,78556,1,0
256,256,78714,1,2
288,256,78872,2,0,B|320:288,1,35
320,256,79188,1,0
320,224,79346,1,2
320,192,79504,1,0
320,160,79662,1,0
288,128,79820,1,0
256,128,79977,1,2
224,160,80135,1,0
224,192,80293,1,0
256,192,80451,2,0,B|288:224,3,35,0|6|0|4
224,256,81241,5,0
160,256,81556,1,2
128,192,81872,1,0
128,128,82188,1,0
192,96,82504,2,0,B|224:128,2,35,4|0|6
256,32,83451,1,6
384,224,84714,1,6
352,256,84872,2,0,B|320:256,2,17.5
352,288,85188,2,0,B|320:288,4,17.5,0|0|0|0|2
128,320,85977,6,0,B|128:288,4,17.5
96,288,86451,2,2,B|64:256|64:192|128:160,1,140
160,160,86925,2,2,B|192:160|224:128|256:64,1,140
288,32,87398,2,2,B|320:32|352:64|320:96|352:128|352:160,1,140
352,192,87872,1,0
384,224,88030,1,0
352,256,88188,1,0
384,288,88346,1,4
352,320,88504,6,0,B|320:320,4,17.5
288,288,88977,2,2,B|256:256|160:256|160:320,1,140,2|2
128,320,89451,2,2,B|96:352|32:352|0:288,1,140,2|2
32,256,89925,2,2,B|32:224|96:224|160:256,1,140,2|2
192,288,90320,2,0,B|224:320,8,35
