osu file format v5

[General]
AudioFilename: Pokemon Platinum_ Champion Cynthia Battle Music.mp3
AudioLeadIn: 0
PreviewTime: -1
Countdown: 1
SampleSet: Soft
StackLeniency: 0.7
Mode: 0
LetterboxInBreaks: 1

[Editor]
DistanceSpacing: 1.10000002384186
BeatDivisor: 8
GridSize: 8

[Metadata]
Title:Cynthia Battle Theme
Artist:Hitomi Sato, Junichi Masuda
Creator:Aoitenshi
Version:Kiddie
Source:Pokemon
Tags:Pokemon PLatinum Cynthia Battle Theme

[Difficulty]
HPDrainRate:3
CircleSize:3
OverallDifficulty:6
SliderMultiplier:1.4
SliderTickRate:1

[Events]
//Background and Video events
0,0,"Cynthia Wall paper.jpg"
//Break Periods
2,3806,12072
2,50008,58516
2,75677,79411
//Storyboard Layer 0 (Background)
//Storyboard Layer 1 (Fail)
//Storyboard Layer 2 (Pass)
//Storyboard Layer 3 (Foreground)
//Storyboard Sound Samples
//Background Colour Transformations
3,100,163,162,255

[TimingPoints]
690,736.196319018405,4,1,0,70,1,0
3606,641.711229946524,4,1,0,70,1,0
39541,-200,4,2,0,100,0,0
49488,-100,4,1,0,70,0,0
70343,-100,4,1,0,70,0,1

[HitObjects]
256,200,690,2,0,L|224:228|224:180|224:124,1,140
256,200,2162,2,0,L|288:228|288:180|288:124,1,140
256,104,3266,1,0
256,104,3606,1,4
96,120,13552,5,0
96,192,13873,2,2,L|176:192|176:120,1,140
256,128,14835,2,0,L|304:128,1,35
328,128,15156,2,0,L|384:128,1,35,2|0
400,128,15477,2,0,L|400:144|400:176,1,35,2|0
400,200,15798,2,0,L|352:200,1,35,2|0
328,200,16119,2,2,L|280:200,2,35
264,144,17402,6,0,B|264:224,1,70,2|2
232,256,18044,2,2,B|312:256,1,70
264,344,18686,1,0
264,344,18846,1,0
264,344,19007,1,4
424,184,19969,2,0,L|424:160|328:160|328:184,1,140,2|2
248,184,20932,2,2,L|176:184|96:184,1,140
256,360,22536,6,2,B|256:312,1,35
256,288,22857,2,2,B|256:240,1,35
256,216,23178,2,6,B|256:176,2,35
416,192,24140,6,2,L|336:192|336:120,1,140
256,128,25102,2,0,L|208:128,1,35
184,128,25423,2,0,L|128:128,1,35,2|0
112,128,25744,2,0,L|112:144|112:176,1,35,2|0
112,200,26065,2,0,L|160:200,1,35,2|0
184,200,26386,2,2,L|232:200,2,35
248,144,27670,6,2,B|248:224,1,70
280,256,28311,2,2,B|192:256,1,70
248,344,28953,1,0
248,344,29113,1,0
248,344,29274,1,4
88,184,30236,2,0,L|88:160|184:160|184:184,1,140,2|2
264,184,31199,2,2,L|336:184|416:184,1,140
256,360,32803,6,2,B|256:312,1,35
256,288,33124,2,2,B|256:240,1,35
256,216,33445,2,6,B|256:168,1,35
256,192,33766,12,2,34407
280,168,35210,5,0
256,136,35370,1,2
280,104,35531,1,0
256,72,35691,2,2,B|256:32,3,35
256,192,36333,12,6,36974
232,168,37777,5,0
256,136,37937,1,2
232,104,38098,1,0
256,72,38258,2,2,B|256:32,3,35
256,37,38900,1,6
256,112,39541,6,2,B|240:136|280:136|240:168|272:168,1,70
256,256,40825,2,2,B|256:288|240:296|256:312,1,52.5
304,320,41787,2,2,B|336:320|352:320,1,35
392,320,42589,2,2,B|384:288|392:256,1,52.5
392,232,43392,1,6
256,112,44675,6,2,B|272:136|232:136|280:168|240:184,1,70
256,256,45959,2,2,B|256:288|272:296|256:312,1,52.5
208,320,46921,2,2,B|176:320|160:320,1,35
120,320,47723,2,2,B|128:288|120:256,1,52.5
120,232,48526,1,6
384,192,49648,6,4,B|416:192,2,17.5
80,192,60076,6,0,B|200:192,2,105,2|0|2
0,192,61360,2,2,B|0:112,1,70
0,122,62001,2,2,B|0:40,1,70
80,56,62643,6,0,B|200:56,1,105,2|0
296,56,63605,1,2
368,56,63926,2,2,B|456:56,1,70
480,120,64568,2,2,B|480:192,1,70
432,192,65210,6,0,B|312:192,2,105,2|0|2
512,192,66494,2,2,B|512:112,1,70
512,122,67135,2,2,B|512:40,1,70
432,56,67777,6,0,B|312:56,1,105,2|0
216,56,68739,1,2
144,56,69060,2,2,B|56:56,1,70
72,136,69702,2,2,B|72:208,1,70
256,192,70343,12,2,72910
256,192,73392,5,2
256,192,73873,5,2
256,192,74354,5,2
256,192,74835,5,2
256,192,75156,1,2
256,192,75477,1,6
256,192,80611,12,6,85745
