osu file format v5

[General]
AudioFilename: 37-battle-uxie-mesprit-azelf.mp3
AudioLeadIn: 0
PreviewTime: 27393
Countdown: 0
SampleSet: Normal
StackLeniency: 0.7
Mode: 0
LetterboxInBreaks: 1
EditorBookmarks: 27494,32631,37792,42958,48119,53281,58442,63603,68765,73926,79087,84249,89490,94571,99731
EditorDistanceSpacing: 0.699999988079071

[Metadata]
Title:Battle! Yuxie, Emurit, & Agnome
Artist:Hitomi Sato, Junichi Masuda
Creator:Gens
Version:Uxie
Source:Pokemon Diamond/Pearl
Tags:Uxie Mesprit Azelf Trio Pokemon Legendary

[Difficulty]
HPDrainRate:2
CircleSize:4
OverallDifficulty:1
SliderMultiplier:0.8
SliderTickRate:2

[Events]
//Background and Video events
0,0,"uxie-bg.png"
//Break Periods
//Storyboard Layer 0 (Background)
//Storyboard Layer 1 (Failing)
//Storyboard Layer 2 (Passing)
//Storyboard Layer 3 (Foreground)
//Storyboard Sound Samples
//Background Colour Transformations
3,100,251,251,0

[TimingPoints]
5629,322.58064516129,4,1,0,60,1,0

[Colours]
Combo1 : 244,0,184
Combo2 : 249,255,6
Combo3 : 0,122,244

[HitObjects]
256,192,27564,6,0,B|256:96|360:96,1,160,0|2
256,192,28854,2,0,B|256:288|152:288,1,160,0|2
256,192,30145,2,0,B|136:72,2,160,0|2|2
256,48,32080,1,4
256,192,32725,6,0,B|256:96|152:96,1,160,0|2
256,192,34015,2,0,B|256:288|360:288,1,160,0|2
256,192,35306,2,0,B|376:72,2,160,0|2|2
256,48,37241,2,0,B|168:48,2,80,4|0|4
400,48,38532,5,0
416,192,39177,2,0,B|88:192,1,320,4|0
112,336,41112,1,0
96,192,41758,2,0,B|416:192,1,320,4|2
312,88,43693,5,2
312,232,44338,2,0,B|312:418|200:418|200:224,1,320,4|2
200,88,46274,5,2
200,232,46919,2,0,B|200:418|312:418|312:224,1,320,4|4
312,160,48532,5,0
312,88,48854,1,0
168,88,49499,1,0
104,128,49821,1,0
40,168,50145,1,0
40,312,50790,2,0,B|184:216,2,160,4|0|4
200,232,53370,5,0
200,160,53693,1,0
200,88,54015,1,2
344,88,54660,1,0
408,128,54982,1,0
472,168,55306,1,2
472,312,55951,2,0,B|328:216,2,160,4|2|6
352,144,58532,6,0,B|352:16|208:16,1,200,4|0
232,104,59822,2,0,B|112:136|104:280,1,200,4|0
192,296,61112,6,0,B|192:168|336:168,1,200,4|0
320,264,62402,2,0,B|448:264|448:392,1,200,4|0
256,192,63693,12,4,67564
256,192,68854,5,0
292,128,69177,1,2
220,128,69499,1,2
256,64,69822,1,4
256,64,70145,2,2,L|178:47|87:66,1,160
96,136,71112,1,4
96,208,71435,6,2,B|96:312|200:312,2,160,2|2|2
256,336,73370,1,4
256,192,74016,5,0
220,128,74339,1,2
292,128,74661,1,2
256,64,74984,1,4
256,64,75307,2,2,L|334:47|425:66,1,160
416,136,76274,1,4
416,208,76597,6,2,B|416:312|312:312,2,160,2|2|2
256,192,78532,1,4
104,88,79177,6,0,L|160:72|208:88|256:56|304:88|352:72|400:88,1,320,4|0
104,296,81758,6,0,L|160:280|208:296|256:264|304:296|352:280|400:296,1,320,4|0
104,192,84338,5,4
256,192,84983,2,2,L|376:72,2,160
400,192,86919,2,2,L|280:312,1,160
256,192,88209,1,4
472,192,89499,5,0
328,192,90145,2,0,B|256:-80|168:208,1,320,4|0
80,240,92080,2,0,B|152:512|240:224,1,320,4|4
392,192,94661,6,0,B|272:72,3,160,0|8|0|8
288,192,97241,6,0,B|168:72,3,160,0|8|0|8
80,192,99822,5,4
152,280,100467,1,0
256,336,101112,1,0
360,280,101758,1,8
432,192,102403,5,4
360,104,103048,1,0
256,48,103693,1,0
152,104,104338,1,8
256,192,104983,12,4,110145
