osu file format v5

[General]
AudioFilename: 37-battle-uxie-mesprit-azelf.mp3
AudioLeadIn: 0
PreviewTime: 27393
Countdown: 0
SampleSet: Normal
StackLeniency: 0.7
Mode: 0
LetterboxInBreaks: 1
EditorBookmarks: 27494,32631,37792,42958,48119,53281,58442,63603,68765,73926,79087,84249,89490,94571,99731
EditorDistanceSpacing: 0.699999988079071

[Metadata]
Title:Battle! Yuxie, Emurit, & Agnome
Artist:Hitomi Sato, Junichi Masuda
Creator:Gens
Version:Mesprit
Source:Pokemon Diamond/Pearl
Tags:Uxie Mesprit Azelf Trio Pokemon Legendary

[Difficulty]
HPDrainRate:6
CircleSize:4
OverallDifficulty:7
SliderMultiplier:1.6
SliderTickRate:2

[Events]
//Background and Video events
0,0,"mesprit-bg.png"
//Break Periods
//Storyboard Layer 0 (Background)
//Storyboard Layer 1 (Failing)
//Storyboard Layer 2 (Passing)
//Storyboard Layer 3 (Foreground)
//Storyboard Sound Samples
//Background Colour Transformations
3,100,255,128,192

[TimingPoints]
5629,322.58064516129,4,1,0,60,1,0

[Colours]
Combo1 : 244,0,184
Combo2 : 249,255,6
Combo3 : 0,122,244

[HitObjects]
256,192,27564,5,0
96,192,27887,1,2
416,192,28209,1,2
296,64,28532,1,4
216,64,28693,1,0
256,136,28854,2,2,B|256:392,1,240,2|2
184,384,29499,1,4
328,288,29822,1,0
472,192,30145,5,0
328,288,30467,1,2
264,240,30628,1,2
200,192,30790,1,4
256,0,31112,1,2
312,192,31435,2,0,B|312:40|40:40,1,320,4|0
256,192,32725,5,0
416,192,33048,1,2
96,192,33370,1,2
216,64,33693,1,4
296,64,33854,1,0
256,136,34015,2,2,B|256:392,1,240,2|2
328,384,34660,1,4
184,288,34983,1,0
40,192,35306,5,0
184,288,35628,1,2
248,240,35789,1,2
312,192,35951,1,4
256,0,36273,1,2
200,192,36596,2,0,B|200:40|472:40,2,320,4|0|4
312,192,38209,5,2
312,192,38370,1,0
472,192,38693,1,2
472,192,38854,1,0
472,336,39177,2,0,B|112:336,1,320,4|0
360,192,40467,5,4
200,192,40790,1,2
200,192,40951,1,0
40,192,41274,1,2
40,192,41435,1,0
40,48,41758,2,0,B|400:48,1,320,4|0
456,192,43048,5,4
456,112,43209,1,2
296,192,43532,1,0
136,112,43855,1,2
136,192,44016,1,0
40,320,44338,2,0,B|248:320|216:88,1,320,4|0
56,192,45628,5,4
56,112,45789,1,2
216,192,46112,1,0
376,112,46435,1,2
376,192,46596,1,0
472,320,46918,2,0,B|264:320|296:88,2,320,4|0|4
472,192,48532,5,0
472,64,48854,1,0
312,64,49177,1,0
232,64,49338,1,0
152,64,49499,2,0,B|152:200|320:200,1,240,4|0
312,280,50145,1,4
120,192,50467,1,0
120,360,50790,5,0
256,360,51112,1,0
336,360,51274,1,0
416,360,51435,2,0,B|520:360|520:264,2,160,4|0|4
256,192,52725,1,0
40,320,53370,5,0
40,192,53693,1,2
40,64,54015,1,2
200,64,54338,1,4
280,64,54499,1,0
360,64,54660,2,2,B|360:200|192:200,1,240,2|2
200,280,55306,1,4
392,192,55628,1,0
392,360,55951,5,0
256,360,56273,1,2
176,360,56435,1,2
96,360,56596,2,0,B|-8:360|-8:264,2,160,4|2|4
256,192,57887,1,0
472,72,58532,6,0,B|208:72,1,240,4|0
232,72,59338,1,0
40,152,59661,1,0
40,152,59822,2,0,B|304:152,1,240,4|0
280,152,60628,1,0
472,232,60951,5,0
472,232,61112,2,0,B|208:232,1,240,4|0
232,232,61918,1,0
40,304,62241,1,0
40,304,62402,2,0,B|304:304,1,240,4|0
280,304,63208,1,0
256,192,63693,12,4,67564
256,192,68854,5,0
256,32,69177,1,2
256,352,69499,1,2
336,192,69822,1,4
256,192,69983,1,0
177,191,70145,2,2,B|196:80|337:96|337:211,1,240
296,264,70790,1,4
216,120,71112,1,0
416,192,71435,5,0
456,40,71758,1,2
376,40,71919,1,2
416,112,72080,2,0,B|320:136|272:48,2,160,4|2|4
416,352,73370,1,0
256,192,74016,5,0
256,32,74339,1,2
256,352,74661,1,2
176,192,74984,1,4
256,192,75145,1,0
335,191,75307,2,2,B|316:80|175:96|175:211,1,240
216,264,75952,1,4
296,120,76274,1,0
96,192,76597,5,0
56,40,76920,1,2
136,40,77081,1,2
96,112,77242,2,0,B|192:136|240:48,2,160,4|2|4
96,352,78532,1,0
336,192,79177,5,4
336,32,79499,1,0
336,192,79822,1,0
336,352,80145,1,0
336,192,80467,1,0
176,192,81758,5,4
176,32,82080,1,0
176,192,82403,1,0
176,352,82726,1,0
176,192,83048,1,0
256,32,84338,5,4
256,192,84661,1,0
256,352,84983,2,2,L|120:216|224:112,2,320,2|2|2
256,352,86919,2,2,L|392:216|288:112,1,320
256,352,88209,1,4
328,216,89499,5,0
328,24,89983,1,0
184,120,90306,1,0
40,216,90628,1,0
120,216,90790,5,0
120,24,91274,1,0
264,120,91597,1,0
408,216,91919,1,0
328,216,92080,6,0,B|184:216|128:88,1,240
256,40,92887,2,0,B|376:160,1,160
408,216,93370,6,0,B|304:248|208:88,1,240
256,280,94177,2,0,B|400:360,1,160
472,344,94661,5,0
416,288,94822,1,8
360,232,94983,1,0
304,176,95145,1,8
248,120,95306,1,0
192,64,95467,1,8
264,32,95628,1,0
344,32,95790,1,0
416,64,95951,5,0
360,120,96112,1,8
304,176,96273,1,0
248,232,96435,1,8
192,288,96596,1,0
136,344,96757,1,8
208,376,96918,1,0
288,376,97080,1,0
360,344,97241,6,0,B|472:344|472:224,3,160,0|2|2|2
470,131,98532,2,0,B|472:40|360:40,3,160,0|2|2|2
152,40,99822,5,4
152,40,100145,1,0
152,40,100467,1,0
256,192,100790,1,0
256,192,101112,1,0
256,192,101435,1,0
256,192,101758,1,0
360,40,102080,1,0
360,344,102403,5,4
360,344,102725,1,0
360,344,103048,1,0
360,344,103370,1,0
360,344,103693,1,0
256,192,104016,1,0
256,192,104338,1,0
256,192,104661,1,0
256,192,104983,12,4,110145
