osu file format v5

[General]
AudioFilename: 37-battle-uxie-mesprit-azelf.mp3
AudioLeadIn: 0
PreviewTime: 27393
Countdown: 0
SampleSet: Normal
StackLeniency: 0.7
Mode: 0
LetterboxInBreaks: 1
EditorBookmarks: 27494,32631,37792,42958,48119,53281,58442,63603,68765,73926,79087,84249,89490,94571,99731
EditorDistanceSpacing: 0.699999988079071

[Metadata]
Title:Battle! Yuxie, Emurit, & Agnome
Artist:Hitomi Sato, Junichi Masuda
Creator:Gens
Version:Azelf
Source:Pokemon Diamond/Pearl
Tags:Uxie Mesprit Azelf Trio Pokemon Legendary

[Difficulty]
HPDrainRate:5
CircleSize:4
OverallDifficulty:6
SliderMultiplier:1.2
SliderTickRate:2

[Events]
//Background and Video events
0,0,"azelf-bg.png"
//Break Periods
//Storyboard Layer 0 (Background)
//Storyboard Layer 1 (Failing)
//Storyboard Layer 2 (Passing)
//Storyboard Layer 3 (Foreground)
//Storyboard Sound Samples
//Background Colour Transformations
3,100,0,128,255

[TimingPoints]
5629,322.58064516129,4,1,0,60,1,0

[Colours]
Combo1 : 244,0,184
Combo2 : 249,255,6
Combo3 : 0,122,244

[HitObjects]
256,40,27564,5,0
208,96,27887,1,2
160,152,28209,1,2
208,208,28532,1,4
256,264,28854,2,2,L|368:152|296:80,1,240
256,40,29822,1,4
256,112,30145,5,0
256,184,30467,1,2
256,184,30628,1,2
256,184,30790,2,0,L|128:184,2,120,4|2|4
256,328,32080,1,0
104,192,32725,5,0
160,144,33048,1,2
216,96,33370,1,2
272,144,33693,1,4
328,192,34015,2,2,L|216:304|144:232,1,240
104,192,34983,1,4
176,192,35306,5,0
248,192,35628,1,2
248,192,35789,1,2
248,192,35951,2,0,L|248:64,2,120,4|2|4
392,192,37241,2,0,L|392:72,1,120,0|4
392,192,37887,5,0
392,264,38209,1,2
392,264,38371,1,0
328,224,38693,1,2
328,224,38854,1,0
328,152,39177,2,0,B|328:16|152:16,1,240,4|0
120,192,40467,5,0
120,120,40789,1,2
120,120,40951,1,0
184,160,41273,1,2
184,160,41434,1,0
184,232,41757,2,0,B|184:368|360:368,1,240,4|0
392,192,43048,5,0
392,192,43209,2,0,B|328:184|328:280,2,120,2|4|2
392,192,44016,1,0
392,120,44338,2,0,B|256:120|256:296,1,240,4|0
120,192,45628,5,0
120,192,45789,2,0,B|184:200|184:104,2,120,2|4|2
120,192,46596,1,0
120,264,46918,2,0,B|256:264|256:88,1,240,4|0
424,192,48209,5,0
352,192,48532,1,0
352,192,48693,1,0
352,192,48854,1,4
280,192,49177,1,0
312,128,49499,2,0,B|312:24|176:24,2,180,4|0|4
248,168,50790,5,0
256,240,51112,1,0
256,240,51274,1,0
256,240,51435,1,4
264,312,51758,1,0
264,312,51919,1,0
264,312,52080,2,0,B|144:312|144:168|273:166,1,240,4|0
88,192,53370,5,0
160,192,53693,1,2
160,192,53854,1,2
160,192,54015,1,4
232,192,54338,1,2
200,128,54660,2,0,B|200:24|336:24,2,180,4|2|4
264,168,55951,5,0
256,240,56273,1,2
256,240,56435,1,2
256,240,56596,1,4
248,312,56919,1,2
248,312,57080,1,2
248,312,57241,2,0,B|368:312|368:168|239:166,1,240,4|0
345,128,58532,6,0,L|257:8|161:136,1,300,4|0
168,239,59822,2,0,L|256:119|352:247,1,300,4|0
345,350,61112,6,0,L|257:230|161:358,1,300,4|0
168,239,62403,2,0,L|256:119|352:247,1,300,4|0
256,192,63693,12,4,67564
256,192,68854,5,0
304,136,69177,1,2
352,80,69499,1,2
376,152,69822,1,4
376,152,69983,1,0
376,152,70145,2,2,B|376:280|376:280|320:296|264:264,1,240
256,192,71112,1,4
184,192,71435,5,0
128,144,71758,1,2
128,144,71919,1,2
128,144,72080,1,4
93,80,72403,1,2
165,80,72725,1,4
256,192,74016,5,0
208,248,74339,1,2
160,304,74661,1,2
136,232,74984,1,4
136,232,75145,1,0
136,232,75307,2,2,B|136:104|136:104|192:88|248:120,1,240
256,192,76274,1,4
328,192,76597,5,0
384,240,76920,1,2
384,240,77081,1,2
384,240,77242,1,4
419,304,77565,1,2
347,304,77887,1,4
176,40,79177,6,0,B|232:96|176:144|176:144|128:200|176:256|176:256|184:256,2,240,4|0|0
336,40,81758,6,0,B|392:96|336:144|336:144|288:200|336:256|336:256|344:256,2,240,4|0|0
256,32,84338,5,4
256,184,84983,2,2,B|8:200,2,240
256,184,86919,2,2,B|504:208,2,240,2|2|4
256,352,89499,5,0
296,216,90145,2,0,B|24:216|24:40|304:40,1,480,4|0
200,127,92080,2,0,B|475:127|475:303|203:303,1,480,4|0
256,40,94661,5,0
192,72,94983,1,8
256,112,95306,1,0
320,144,95628,1,4
256,184,95951,5,0
192,216,96273,1,8
256,256,96596,1,0
320,288,96918,1,4
256,328,97241,6,0,L|256:200,1,120,0|8
256,208,97887,2,0,L|256:88,1,120,0|4
184,88,98532,6,0,L|184:208,1,120,0|8
184,208,99178,2,0,L|184:328,1,120,0|4
256,328,99822,6,0,L|376:328|376:192,3,240,4|0|0|0
304,208,102080,1,2
232,208,102403,6,0,L|112:208|112:72,3,240,4|0|0|0
184,88,104661,1,2
256,192,104983,12,4,110145
