osu file format v5

[General]
AudioFilename: 32 Battle! Gym Leader.mp3
AudioLeadIn: 0
PreviewTime: -1
Countdown: 1
SampleSet: Normal
StackLeniency: 0.5
Mode: 0
LetterboxInBreaks: 1
EditorBookmarks: 3010,24010,45343,59010
EditorDistanceSpacing: 0.5

[Metadata]
Title:Battle! Gym Leader
Artist:Hitomi Sato, Junichi Masuda
Creator:Soaprman
Version:Insane
Source:Pokemon Diamond and Pearl
Tags:pokemon,nintendo,tons of fun for everyone

[Difficulty]
HPDrainRate:6
CircleSize:4
OverallDifficulty:7
SliderMultiplier:2
SliderTickRate:2

[Events]
//Background and Video events
0,0,"gymleaders.jpg"
//Break Periods
2,51210,57960
2,86376,87293
2,89376,90776
//Storyboard Layer 0 (Background)
//Storyboard Layer 1 (Fail)
//Storyboard Layer 2 (Pass)
//Storyboard Layer 3 (Foreground)
Sprite,Foreground,Centre,"warning.png",448,286 M,0,35176,35676,448,286 F,0,35176,35676,0,1 F,0,35676,36093,1,0 M,0,35676,36176,448,286
Sprite,Foreground,Centre,"warning.png",559,286 M,0,35176,35676,559,286 F,0,35176,35676,0,1 F,0,35676,36093,1,0 M,0,35676,36176,559,286
Sprite,Foreground,Centre,"warning.png",79,288 M,0,36510,37010,79,288 F,0,36510,37010,0,1 M,0,37010,37510,79,288 F,0,37010,37510,1,0
Sprite,Foreground,Centre,"warning.png",200,287 M,0,36510,37010,200,287 F,0,36510,37010,0,1 M,0,37010,37510,200,287 F,0,37010,37510,1,0
Sprite,Foreground,Centre,"warning.png",320,240 M,0,37843,38343,282,230 F,0,37843,38343,0,1 M,0,38343,38843,282,230 F,0,38343,38843,1,0
Sprite,Foreground,Centre,"warning.png",320,240 M,0,37843,38343,179,118 F,0,37843,38343,0,1 M,0,38343,38843,179,118 F,0,38343,38843,1,0
Sprite,Foreground,Centre,"warning.png",364,233 M,0,39176,39676,364,233 F,0,39176,39676,0,1 M,0,39676,40176,364,233 F,0,39676,40176,1,0
Sprite,Foreground,Centre,"warning.png",457,123 M,0,39176,39676,457,123 F,0,39176,39676,0,1 M,0,39676,40176,457,123 F,0,39676,40176,1,0
//Storyboard Sound Samples
//Background Colour Transformations
3,100,163,162,255

[TimingPoints]
3010.15033794011,333.333333333333,4,1,0,60,1,0
35010,-100,4,1,0,75,0,1
36010,-50,4,1,0,75,0,1
36343,-100,4,1,0,75,0,1
37343,-50,4,1,0,75,0,1
37676,-100,4,1,0,75,0,1
38676,-50,4,1,0,75,0,1
39010,-100,4,1,0,75,0,1
40010,-50,4,1,0,75,0,1
40343,-100,4,1,0,75,0,1
45593,-100,4,2,0,40,0,0
50343,-100,4,2,0,50,0,0
51010,-100,4,2,0,60,0,0
59010,-100,4,1,0,60,0,0
80343,-100,4,2,0,40,0,0
85676,-100,4,1,0,65,0,0
91676,-100,4,2,0,80,0,0
92343,-100,4,1,0,80,0,0

[HitObjects]
256,192,3010,1,0
80,192,3343,1,0
80,192,3510,1,8
168,56,3843,1,0
168,56,4010,1,8
344,56,4343,1,0
344,56,4510,1,8
432,192,4843,1,0
432,192,5010,1,2
344,328,5343,1,2
256,192,5676,5,0
432,192,6009,1,0
432,192,6176,1,8
344,56,6509,1,0
344,56,6676,1,8
168,56,7009,1,0
168,56,7176,1,8
80,192,7509,1,0
80,192,7676,1,2
168,328,8009,1,2
256,192,8343,5,0
80,192,8676,1,0
80,192,8843,1,8
168,328,9176,1,0
168,328,9343,1,8
344,328,9676,1,0
344,328,9843,1,8
432,192,10176,1,2
432,192,10343,6,2,B|328:72|240:240,2,200,2|2|2
344,56,11343,1,8
344,56,11510,1,8
168,56,11843,1,0
168,56,12010,1,8
344,56,12343,1,0
344,56,12510,1,8
432,192,12843,1,0
432,192,13010,6,2,B|328:312|240:144,2,200,2|2|2
344,56,14176,1,0
168,56,14676,1,8
112,104,14843,1,8
184,128,15010,1,8
184,304,15510,1,0
296,303,15843,1,8
256,230,16010,1,8
330,190,16176,1,8
369,263,16343,1,8
369,263,16843,1,4
160,160,17343,5,0
120,152,17426,1,0
88,128,17510,1,0
152,80,17676,2,0,B|480:80,1,300,2|4
256,192,18676,5,0
96,192,19010,6,0,B|176:352|376:288,1,300,8|4
296,64,20010,1,8
336,128,20176,1,8
256,128,20343,2,0,B|32:56|32:336,1,300,8|4
200,264,21176,1,8
248,328,21343,1,8
272,248,21510,1,8
320,304,21676,2,0,B|416:120|208:64,1,300,8|4
136,296,22676,1,0
296,296,23010,5,4
216,296,23176,1,4
296,296,23343,1,4
216,296,23510,1,4
256,192,24010,5,8
64,56,24343,5,2
112,152,24565,1,0
160,248,24787,1,0
208,344,25010,1,2
256,192,25343,5,8
448,56,25676,5,2
400,152,25899,1,0
352,248,26121,1,0
304,344,26343,1,2
256,192,26676,5,8
64,328,27010,5,2
120,232,27232,1,0
168,136,27454,1,0
208,40,27676,1,2
256,192,28010,5,8
400,328,28343,5,0
352,232,28593,1,2
456,232,28843,1,0
408,152,29010,1,2
256,192,29343,5,8
64,328,29676,5,2
120,232,29899,1,0
168,136,30121,1,0
208,40,30343,5,2
304,80,30565,1,0
400,120,30787,1,0
320,320,31010,5,2
216,280,31232,1,0
120,232,31454,1,0
400,120,31676,5,2
368,224,31899,1,0
320,320,32121,1,0
208,40,32343,5,4
400,120,32593,1,4
320,320,32787,1,4
120,232,33010,1,4
256,192,33343,12,0,34676
256,192,35176,6,2,B|248:336|448:280,1,200,2|0
440,216,36010,2,8,B|448:72|248:128,1,200
256,192,36510,2,2,B|264:336|64:280,1,200,2|0
72,216,37343,2,8,B|64:72|264:128,1,200
72,304,37843,6,2,B|168:384|272:288,1,200,2|0
160,112,38676,2,8,B|256:32|360:128,1,200
440,304,39176,2,2,B|344:384|240:288,1,200,2|0
344,112,40010,2,8,B|248:32|144:128,1,200
472,48,40510,5,4
472,48,40843,1,4
48,48,41343,1,0
48,48,41510,1,0
48,48,41843,5,4
48,48,42176,1,4
464,344,42676,1,0
464,344,42843,1,0
464,344,43176,5,4
464,344,43510,1,4
48,344,44010,1,0
48,344,44176,1,0
48,344,44510,5,4
48,344,44843,1,4
256,192,45343,1,4
256,192,45510,1,4
184,160,45676,5,2
104,184,45843,1,0
88,264,46010,1,0
144,320,46176,1,2
304,312,46510,1,0
376,272,46676,1,0
408,200,46843,1,0
376,128,47010,1,0
376,128,47093,1,0
376,128,47176,1,0
312,80,47343,1,0
232,64,47510,1,0
160,96,47677,1,0
160,96,47760,1,0
160,96,47844,1,0
160,96,47927,1,0
160,96,48010,1,0
120,160,48176,1,0
168,224,48343,5,2
216,160,48510,1,0
264,224,48676,1,0
312,160,48843,1,2
432,264,49176,2,0,B|432:328|376:336,1,100
296,328,49510,2,0,B|296:264|352:256,2,100
216,328,50010,2,0,B|152:328|144:272,1,100
64,272,50343,5,0
88,240,50426,1,0
112,208,50510,1,0
136,176,50593,1,0
160,144,50676,1,0
184,112,50760,1,0
208,80,50843,1,0
288,80,51010,1,4
352,192,59010,5,0
280,152,59176,1,0
208,192,59343,1,0
136,152,59510,1,0
136,152,59593,1,0
136,152,59676,1,0
208,296,60010,5,0
280,264,60176,1,0
352,296,60343,1,2
424,264,60510,1,0
424,184,60676,1,0
424,104,60843,1,0
424,104,60926,1,0
424,104,61010,1,2
344,104,61176,1,0
264,104,61343,1,0
184,104,61510,1,0
104,104,61676,1,2
104,264,62010,1,2
184,264,62176,1,2
424,264,62676,5,0
424,264,62760,1,0
424,264,62843,1,0
424,264,62926,1,0
424,264,63010,1,2
280,200,63343,1,2
200,200,63510,1,2
408,80,64010,6,0,B|440:104|408:120,6,50
328,80,64676,1,0
248,80,64843,1,2
104,272,65343,1,0
168,224,65510,1,0
232,272,65676,1,2
296,224,65843,1,0
456,224,66176,5,0
456,224,66260,1,0
456,224,66343,1,2
392,176,66510,1,0
312,160,66676,1,0
232,160,66843,1,0
152,160,67010,1,0
112,160,67093,1,0
72,160,67176,1,2
72,240,67343,1,2
152,240,67510,1,2
440,240,68343,5,0
408,216,68426,1,0
376,192,68510,1,2
296,192,68676,1,0
216,192,68843,1,2
216,192,69343,1,8
216,192,69676,6,0,B|168:96|128:192,3,133.333333333333,2|0|0|2
448,192,70676,1,8
216,192,71010,2,0,B|168:288|128:192,3,133.333333333333,2|0|0|2
448,192,72010,1,8
216,192,72343,6,0,B|168:96|128:192,3,133.333333333333,2|0|0|2
448,192,73343,1,8
216,192,73676,2,0,B|168:288|128:192,3,133.333333333333,0|2|0|2
448,192,74676,1,0
176,192,75010,6,0,B|96:184|136:32,2,133.333333333333,2|0|0
336,192,75676,2,0,B|416:200|376:352,2,133.333333333333,2|0|0
176,256,76343,2,0,B|168:336|16:296,2,133.333333333333,2|0|0
336,128,77010,2,0,B|344:48|496:88,2,133.333333333333,2|0|0
176,320,77676,2,4,B|96:312|136:160,2,133.333333333333
280,320,78343,1,4
440,320,78676,1,0
360,176,79010,1,0
256,192,80343,5,0
184,224,80510,1,0
136,160,80676,1,0
64,192,80843,1,2
176,304,81176,5,0
256,280,81343,1,0
336,256,81510,1,0
416,232,81676,1,0
408,192,81760,1,0
400,152,81843,1,0
328,184,82010,1,0
320,144,82093,1,0
312,104,82176,1,0
240,136,82343,5,0
176,80,82510,1,0
104,120,82676,1,0
168,168,82843,1,0
96,208,83010,5,0
160,256,83176,1,0
232,216,83343,1,0
304,184,83510,1,2
240,336,83843,5,0
312,304,84010,1,0
384,272,84176,1,0
424,200,84343,1,0
384,200,84426,1,0
344,200,84510,1,0
264,200,84676,1,0
224,200,84760,1,0
184,200,84843,1,0
144,128,85010,1,0
184,128,85093,1,0
224,128,85176,1,0
264,128,85260,1,0
304,128,85343,1,0
464,128,85676,5,6
48,128,86176,1,6
464,192,88343,5,6
48,80,88843,1,6
48,304,89176,1,6
72,136,91676,5,0
96,168,91760,1,0
128,192,91843,1,0
168,200,91926,1,0
208,192,92010,1,0
240,176,92093,1,0
280,168,92176,1,0
320,176,92260,1,0
352,192,92343,5,4
