osu file format v5

[General]
AudioFilename: 32 Battle! Gym Leader.mp3
AudioLeadIn: 0
PreviewTime: -1
Countdown: 1
SampleSet: Normal
StackLeniency: 0.7
Mode: 0
LetterboxInBreaks: 1
EditorBookmarks: 3010,24010,45343,59010
EditorDistanceSpacing: 0.5

[Metadata]
Title:Battle! Gym Leader
Artist:Hitomi Sato, Junichi Masuda
Creator:Soaprman
Version:Easy
Source:Pokemon Diamond and Pearl
Tags:pokemon,nintendo,tons of fun for everyone

[Difficulty]
HPDrainRate:1
CircleSize:3
OverallDifficulty:1
SliderMultiplier:1.2
SliderTickRate:2

[Events]
//Background and Video events
0,0,"gymleaders.jpg"
//Break Periods
2,51209,57330
//Storyboard Layer 0 (Background)
//Storyboard Layer 1 (Fail)
//Storyboard Layer 2 (Pass)
//Storyboard Layer 3 (Foreground)
//Storyboard Sound Samples
//Background Colour Transformations
3,100,163,162,255

[TimingPoints]
3010.15033794011,333.333333333333,4,1,0,60,1,0
35010,-100,4,1,0,75,0,1
45676,-100,4,2,0,40,0,0
50343,-100,4,2,0,50,0,0
51010,-100,4,2,0,60,0,0
59010,-100,4,1,0,60,0,0
80343,-100,4,2,0,40,0,0
85676,-100,4,1,0,65,0,0
91676,-100,4,2,0,80,0,0
92343,-100,4,1,0,80,0,0

[HitObjects]
256,192,3010,1,0
176,144,3510,1,0
104,192,4010,1,0
176,232,4510,1,0
176,320,5010,2,2,B|288:376|416:320,1,240
408,232,6176,5,0
488,192,6676,1,0
408,144,7176,1,0
328,184,7676,2,2,B|200:136|80:192,1,240
144,256,8843,5,0
232,256,9343,1,0
320,256,9843,1,0
352,168,10343,2,2,B|448:72,2,120,2|2|2
272,120,11510,5,0
192,168,12010,1,0
272,208,12510,1,0
352,168,13010,2,2,B|448:264,2,120,2|2|2
352,256,14176,5,0
216,312,15009,1,8
128,312,15510,1,0
128,160,16343,1,8
216,160,16843,1,4
344,232,17676,2,0,B|152:232,1,180,2|4
104,96,19010,6,0,B|192:152|280:96,1,180
392,192,20343,2,0,B|304:248|216:192,1,180,2|4
104,288,21676,2,0,B|192:344|280:288,1,180,8|4
256,72,24343,6,2,B|88:40|136:216,1,240,2|2
256,312,25676,2,2,B|424:344|376:168,1,240,2|2
256,72,27010,2,2,B|88:40|136:216,1,240,2|2
256,312,28343,2,2,B|424:344|376:168,1,240,2|2
256,192,29510,12,4,33676
256,192,35176,6,2,B|88:192,1,120,2|2
176,112,36010,1,8
176,112,36176,1,8
256,192,36510,6,2,B|384:192,1,120,2|2
336,272,37343,1,8
336,272,37509,1,8
256,192,37843,6,2,B|256:328,1,120,2|2
176,272,38676,1,8
176,272,38842,1,8
256,192,39176,6,2,B|256:56,1,120,2|2
336,112,40010,1,8
336,112,40176,1,8
256,192,40510,12,4,44176
256,192,45676,5,2
168,192,46176,1,2
168,344,47010,2,0,B|432:328|448:96,1,360
440,88,48343,5,2
352,88,48843,1,2
200,88,49676,2,0,B|136:24|72:88|136:152|200:216|264:152|328:216|264:280|328:344|432:336,1,480,0|4
256,136,59010,5,0
192,136,59343,1,0
128,136,59676,1,0
64,136,60010,2,0,B|64:344|464:344|464:64,1,600
400,72,62010,5,8
400,72,62176,1,8
336,136,62676,6,0,B|240:136|248:48,1,120,0|2
184,72,63343,1,8
184,72,63510,1,8
112,128,64010,6,0,B|112:248|368:248,1,300,0|2
440,248,65343,1,0
440,184,65676,1,2
376,112,66343,5,2
312,112,66676,1,0
248,112,67010,1,0
184,112,67343,2,2,B|120:112,1,60
136,272,69676,6,0,B|272:320|400:264,1,240
376,112,71010,6,0,B|240:64|112:120,1,240
136,272,72343,6,0,B|272:320|400:264,1,240
376,112,73676,6,0,B|240:64|112:120,1,240
104,160,74676,1,8
144,200,75010,5,0
264,200,75676,1,0
384,200,76343,1,0
264,200,77010,1,0
144,200,77676,1,0
264,200,78343,1,4
296,152,78676,1,0
352,176,79010,1,0
152,264,80343,5,0
240,264,80843,1,2
296,264,81176,6,0,B|488:264|488:16|48:16|48:144,1,540
72,160,83010,5,0
72,248,83510,1,2
224,248,84343,6,0,B|352:296|488:240,1,240
336,80,85676,5,6
176,80,86176,1,6
256,80,88343,5,6
200,216,88843,1,6
312,216,89176,1,6
256,192,91010,12,4,92343
