osu file format v9

[General]
AudioFilename: 50 Dance - Hard.mp3
AudioLeadIn: 2000
PreviewTime: 6370
Countdown: 0
SampleSet: Normal
StackLeniency: 0.7
Mode: 0
LetterboxInBreaks: 0

[Editor]
Bookmarks: 38145,58395,61895
DistanceSpacing: 1
BeatDivisor: 4
GridSize: 8

[Metadata]
Title:Difficult Dance
Artist:Hitomi Sato, Junichi Masuda
Creator:chamelepeace710
Version:Ultra Rank
Source:Pokemon
Tags:contest super diamond pearl platinum dansu muzukashii hard

[Difficulty]
HPDrainRate:6
CircleSize:4
OverallDifficulty:6
ApproachRate:7
SliderMultiplier:2
SliderTickRate:1

[Events]
//Background and Video events
0,0,"contest-dance.png"
//Break Periods
2,58614,61515
//Storyboard Layer 0 (Background)
//Storyboard Layer 1 (Fail)
//Storyboard Layer 2 (Pass)
//Storyboard Layer 3 (Foreground)
Sprite,Foreground,Centre,"cooltext510076267.png",320,240 M,0,61915,,161,367 F,0,61915,62415,0.1910399,1 S,0,61915,62415,0.1,0.7655997 F,0,62415,78421,1 R,0,63416,,0.3481598 F,0,78421,79421,1,0
//Storyboard Sound Samples
//Background Colour Transformations
3,100,163,162,255

[TimingPoints]
395,500.166722240747,4,1,1,50,1,0
49286,-100,4,1,2,50,0,0
49536,-100,4,1,1,50,0,0
62415,-80,4,1,1,50,0,1
74419,-80,4,1,1,50,0,0

[Colours]
Combo1 : 236,0,118
Combo2 : 0,128,255
Combo3 : 255,128,192
Combo4 : 255,255,0

[HitObjects]
400,64,395,1,0
448,160,645,1,0
384,240,895,1,8
296,200,1145,1,0
304,104,1395,1,0
208,64,1645,1,0
144,136,1895,1,8
192,224,2145,1,0
256,304,2395,6,0,B|176:368|64:352,2,200,0|8|0
248,200,3646,1,0
344,168,3896,1,8
416,240,4146,1,0
440,336,4396,2,0,B|376:384|296:320|344:240,3,200,0|8|0|8
256,48,6397,5,4
80,144,6897,1,8
64,240,7147,1,0
160,208,7397,1,0
176,112,7647,1,0
96,48,7897,1,8
288,32,8397,6,0,B|256:128|304:208|448:208|480:128,1,300
464,152,9272,1,0
384,88,9523,1,0
384,88,9648,1,0
344,176,9898,1,8
344,176,10148,1,0
256,128,10398,6,0,B|256:240,1,100
208,320,10898,2,0,B|208:256|144:256,1,100,8|0
304,320,11398,2,0,B|304:256|368:256,1,100
416,256,11773,1,0
464,256,11898,2,0,B|464:144,1,100,8|0
384,96,12399,5,0
304,32,12649,1,0
256,16,12774,1,0
208,32,12899,1,10
256,128,13149,1,2
128,96,13399,2,0,B|128:160|144:208|208:224|256:224|304:224|368:208|384:160|384:96,1,400,0|4
464,160,14649,5,0
448,208,14774,1,0
480,240,14899,1,8
400,288,15149,1,0
352,304,15274,2,0,B|304:320,1,50
256,336,15525,1,0
160,304,15775,1,0
112,288,15900,1,8
176,208,16150,6,0,B|192:160|256:144|320:160|336:208,1,200
384,224,16775,1,0
432,240,16900,2,0,B|464:144,1,100,8|0
480,96,17275,2,0,B|384:64,1,100
288,48,17775,1,0
224,48,17900,1,8
256,144,18150,1,0
160,176,18401,5,2
352,176,18901,1,2
256,352,19401,1,0
160,304,19651,1,0
256,256,19901,1,8
352,304,20151,1,0
352,176,20401,5,2
160,176,20901,1,2
256,0,21402,1,0
208,16,21527,1,0
176,64,21652,1,0
208,112,21777,1,0
256,128,21902,1,8
304,112,22027,1,0
336,64,22152,1,0
432,24,22402,5,4
504,96,22652,1,0
456,120,22777,1,8
376,176,23027,1,0
376,224,23152,1,8
472,256,23402,2,0,B|472:320|408:352,1,100,0|8
376,352,23777,2,0,B|328:368|264:368,1,100,0|0
256,320,24152,1,8
256,208,24403,5,0
256,112,24653,1,0
256,64,24778,1,8
176,128,25028,1,0
160,176,25153,1,8
336,128,25403,1,0
352,176,25528,1,8
448,208,25778,5,0
480,160,25903,1,8
448,112,26028,1,0
480,64,26153,1,8
384,32,26403,6,0,B|272:32,1,100,0|8
256,80,26778,2,0,B|96:80,1,150,0|8
64,176,27404,1,0
120,264,27654,1,8
48,256,27779,2,0,B|48:320|104:352|168:328,1,150,0|8
256,288,28404,5,0
480,192,28904,1,8
256,96,29404,1,0
32,192,29904,1,8
96,304,30154,5,0
96,304,30279,1,0
96,304,30405,2,0,B|144:208,1,100,0|8
208,208,30780,2,0,B|176:112,1,100,0|0
176,48,31155,1,8
288,96,31405,5,0
400,144,31655,1,8
384,32,31905,1,6
496,64,32155,1,8
512,176,32405,6,0,B|512:240|448:272,1,100,0|8
416,288,32780,2,0,B|384:320|320:320,1,100
272,336,33155,1,8
256,224,33406,5,0
144,160,33656,1,8
256,96,33906,1,6
368,160,34156,1,8
480,96,34406,6,0,B|496:176|448:240|400:272,1,200,0|8
288,304,35156,1,0
256,352,35281,1,0
224,304,35406,1,0
112,272,35656,2,0,B|64:240|32:176,1,100,0|8
48,144,36031,1,0
80,96,36156,1,0
128,64,36281,1,0
256,192,36657,5,0
288,240,36782,2,0,B|304:304|400:304|416:240,1,150,8|8
448,144,37407,1,0
432,80,37532,1,0
384,48,37657,2,0,B|336:16|256:16,3,100,8|0|8|6
192,160,38907,5,0
160,176,39408,1,0
224,128,39908,1,0
192,240,40408,1,0
144,96,40908,1,0
272,240,41408,1,0
64,96,41908,1,0
256,368,42409,5,0
352,288,42659,1,0
416,304,42784,1,0
480,320,42909,1,8
480,192,43159,2,0,B|368:192,1,100
416,80,43659,1,0
352,64,43784,1,0
288,48,43909,1,8
256,160,44159,1,0
160,240,44409,6,0,B|208:208|256:240,1,100
256,304,44784,2,0,B|256:352|208:368|160:352|160:304,1,150,8|8
96,208,45410,1,0
144,176,45535,1,8
256,128,45785,1,0
208,96,45910,1,8
96,96,46160,1,8
192,16,46410,6,0,B|400:16,1,200,0|8
368,128,47160,1,0
400,176,47285,1,0
448,192,47410,1,0
368,272,47660,1,0
400,320,47785,1,0
448,336,47910,1,8
480,240,48160,1,0
368,272,48411,6,0,B|416:192|400:96|352:32|256:16|160:32|112:96|96:192|144:272,1,600,0|8
256,272,50161,1,0
256,224,50286,1,0
256,176,50411,6,0,B|256:112|192:96|144:112,1,150,0|0
160,160,50911,2,0,B|160:224|112:256|48:240|16:192,1,200,8|0
64,112,51662,1,0
96,80,51787,1,0
144,64,51912,1,8
240,48,52162,1,0
336,80,52412,6,0,B|368:128|432:112,1,100,0|0
464,96,52787,2,0,B|512:112|512:176,1,100,8|0
480,208,53162,1,8
416,288,53412,2,0,B|400:240|352:192|256:144|160:192|112:240|96:288,1,400
256,192,54538,12,0,58414
160,144,62415,6,0,B|128:64|192:16|256:48|256:80,2,187.499997206032,0|8|8
256,224,63416,1,0
320,224,63541,1,0
384,224,63666,1,8
304,320,63916,2,0,B|304:352|248:400|184:352,1,124.999998137355,0|8
240,304,64291,1,0
176,288,64416,6,0,B|112:224|48:288|0:224,2,187.499997206032,0|8|8
128,176,65416,2,0,B|64:144|80:48|144:32,1,124.999998137355,0|8
160,112,65791,1,8
192,48,65916,2,0,B|256:80|240:176|176:192,1,124.999998137355,0|8
384,96,66417,6,0,B|432:352,1,249.99999627471,4|8
304,304,67167,1,0
256,256,67292,1,0
208,304,67417,1,0
256,352,67542,1,0
256,128,67792,2,0,B|256:192,1,62.4999990686774,0|8
256,64,68167,1,0
144,112,68417,6,0,B|144:32|192:0,1,124.999998137355
256,0,68792,1,0
320,0,68917,2,0,B|368:32|368:112,1,124.999998137355,8|0
368,176,69292,1,0
256,240,69543,1,8
256,304,69668,1,0
144,176,69918,2,8,B|16:176,1,124.999998137355,8|2
128,256,70418,6,0,B|256:240,1,124.999998137355
336,144,70918,2,0,B|208:160,1,124.999998137355,8|0
112,80,71418,2,0,B|240:64,1,124.999998137355
336,144,71918,2,0,B|208:160,1,124.999998137355,8|0
128,256,72419,6,0,B|176:320|256:304,1,124.999998137355,0|8
288,272,72794,2,0,B|336:208|416:224,1,124.999998137355,0|0
448,192,73169,1,8
464,128,73294,1,0
448,64,73419,1,0
384,48,73544,2,0,B|336:32|336:32|320:48|320:48|272:32,1,124.999998137355,8|0
256,96,73919,1,8
256,224,74169,1,8
176,160,74419,6,0,B|64:192|16:96|48:16,1,249.99999627471,0|8
176,224,75420,2,0,B|64:192|16:288|48:368,1,249.99999627471,0|8
144,288,76170,1,0
256,336,76420,2,0,B|336:272|288:208|288:208|256:176|256:176|192:112|288:16,1,374.999994412065
352,96,77420,2,0,B|336:208|464:256|512:192,1,249.99999627471,0|8
296,320,78421,5,0
360,312,78546,1,0
424,304,78671,1,0
232,144,79171,5,0
168,152,79296,1,0
104,160,79421,1,0
