osu file format v9

[General]
AudioFilename: 50 Dance - Hard.mp3
AudioLeadIn: 2000
PreviewTime: 6370
Countdown: 0
SampleSet: Normal
StackLeniency: 0.7
Mode: 0
LetterboxInBreaks: 0

[Editor]
Bookmarks: 58395,62270
DistanceSpacing: 0.8
BeatDivisor: 4
GridSize: 8

[Metadata]
Title:Difficult Dance
Artist:Hitomi Sato, Junichi Masuda
Creator:chamelepeace710
Version:Normal Rank
Source:Pokemon
Tags:contest super diamond pearl platinum dansu muzukashii

[Difficulty]
HPDrainRate:4
CircleSize:4
OverallDifficulty:3
ApproachRate:5
SliderMultiplier:1.7
SliderTickRate:1

[Events]
//Background and Video events
0,0,"contest-dance.png"
//Break Periods
2,38607,41209
2,58614,61215
//Storyboard Layer 0 (Background)
//Storyboard Layer 1 (Fail)
//Storyboard Layer 2 (Pass)
//Storyboard Layer 3 (Foreground)
//Storyboard Sound Samples
//Background Colour Transformations
3,100,163,162,255

[TimingPoints]
395,500.166722240747,4,1,1,50,1,0
8520,-100,4,1,2,50,0,0
18270,-100,4,1,0,50,0,0
24770,-100,4,1,1,50,0,0
25270,-100,4,1,2,50,0,0
26770,-100,4,1,1,50,0,0
27145,-100,4,1,2,50,0,0
28770,-100,4,1,1,50,0,0
62415,-100,4,1,1,50,0,1
71270,-100,4,1,2,50,0,1
71520,-100,4,1,1,50,0,1
74419,-100,4,1,1,50,0,0

[Colours]
Combo1 : 236,0,118
Combo2 : 0,128,255
Combo3 : 255,128,192
Combo4 : 255,255,0

[HitObjects]
112,48,395,2,0,B|288:48,1,170,0|8
400,128,1395,2,0,B|224:128,1,170,0|8
144,240,2395,2,0,B|176:336|64:368|32:320,3,170,0|8|0|8
80,272,4146,1,0
48,208,4396,1,0
176,160,4896,5,8
256,272,5396,1,0
336,160,5896,1,8
176,96,6397,6,0,B|176:32|208:0|304:0|336:32|336:96,1,255,4|0
336,160,7397,1,0
176,160,7897,1,8
240,192,8147,1,0
216,256,8397,2,0,B|208:360|96:336,1,170,0|8
16,272,9272,1,0
32,208,9523,2,0,B|72:160|144:152,1,127.5,0|8
208,176,10148,1,0
256,128,10398,6,0,B|304:48|400:48,1,170,0|8
256,128,11398,2,0,B|208:48|112:48,1,170,0|8
144,176,12399,5,0
256,248,12899,1,8
368,176,13399,1,0
336,48,13899,2,0,B|296:24|256:48,1,85,8|8
256,112,14399,5,4
256,248,14899,1,8
128,288,15400,1,0
48,184,15900,1,8
128,72,16400,5,0
256,112,16900,2,0,B|384:112,1,127.5,8|0
384,168,17525,1,0
368,264,17900,2,0,B|272:264,1,85,8|0
224,312,18401,6,2,B|144:312|144:312|48:312|48:216|48:216|48:104,1,340
288,72,20401,2,2,B|368:72|368:72|464:72|464:168|464:168|464:280,1,340
224,112,22402,6,0,B|160:64|80:128|112:208,1,170,4|8
112,240,23152,1,0
48,208,23402,2,0,B|0:144|0:80,2,127.5,0|8|8
48,272,24403,6,0,B|96:352|168:384|256:288|256:288|344:384|416:352|464:272,1,510,0|8
368,192,26403,2,0,B|408:120|384:32|328:8|256:-8|184:8|128:32|104:120|144:192,1,510,0|8
224,256,28404,2,0,B|176:288|160:336|208:384|256:416|304:384|352:336|336:288|288:256,1,340
256,128,29904,1,8
176,224,30405,6,0,B|352:224,1,170,4|8
304,160,31155,1,0
184,96,31655,1,0
248,80,31905,1,8
256,16,32155,1,0
320,48,32405,6,0,B|400:16|456:112|400:160,1,170,4|8
352,112,33155,1,0
328,248,33656,1,0
264,256,33906,1,8
256,320,34156,1,0
192,320,34406,6,0,B|96:320|56:232,1,170,0|8
192,64,35406,2,0,B|96:64|56:152,1,170,0|8
288,192,36407,2,0,B|464:192,4,170,0|8|0|8|2
256,64,42409,5,4
176,176,42909,2,0,B|192:240|80:272|64:192,1,170,8|0
112,144,43659,1,0
72,88,43909,2,0,B|56:16|184:0|184:72,1,170,8|0
440,88,44909,2,0,B|456:16|328:0|328:72,1,170,8|0
296,120,45660,1,0
256,176,45910,1,8
176,304,46410,6,0,B|256:240|336:304,1,170,0|8
144,112,47410,6,0,B|208:192|144:272,1,170,0|8
336,80,48411,6,0,B|256:144|176:80,1,170,0|8
368,272,49411,6,0,B|304:192|368:112,1,170,0|8
400,56,50161,1,0
336,32,50411,6,0,B|288:0|224:0|176:32,1,170,0|8
208,96,51161,2,0,B|152:128|80:64|104:0,1,170
176,32,51912,1,8
256,144,52412,2,0,B|256:320,3,170,0|8|0|8
128,256,54413,6,0,B|64:192|64:176|128:112|128:96|64:32,1,255
128,8,55413,2,0,B|304:8,1,170,0|8
384,128,56413,6,0,B|448:192|448:208|384:272|384:288|448:352,1,255
384,376,57414,2,0,B|209:377,1,170,0|8
256,216,58414,1,4
240,48,62415,6,0,B|112:48,2,127.5,4|0|0
272,112,63416,2,0,B|400:112,2,127.5
240,176,64416,2,0,B|112:176,2,127.5
272,240,65416,1,0
240,368,65916,1,8
368,320,66417,6,0,B|432:288|416:208|416:208|400:128|384:48,1,255
320,80,67417,2,0,B|288:16|208:32|208:32|128:48|48:64,1,255
64,192,68667,2,0,B|64:288,1,85,0|8
160,240,69292,1,0
224,240,69543,1,0
192,144,69918,2,0,B|192:48,1,85,8|0
256,32,70418,6,0,B|432:32|448:192|432:352|256:352,1,510,0|8
336,240,72419,2,0,B|256:176|176:240,1,170,0|8
128,288,73169,1,0
96,352,73419,1,0
96,224,73919,1,8
96,96,74419,5,0
352,192,75420,1,0
224,192,75920,1,8
152,312,76420,2,0,B|56:312|32:192|56:72|152:72,1,340
288,72,77920,1,8
312,208,78421,6,0,B|312:296,1,85,0|0
200,176,79171,2,0,B|200:88,1,85,0|4
