osu file format v9

[General]
AudioFilename: 50 Dance - Hard.mp3
AudioLeadIn: 2000
PreviewTime: 6370
Countdown: 0
SampleSet: Normal
StackLeniency: 0.7
Mode: 0
LetterboxInBreaks: 0

[Editor]
DistanceSpacing: 1
BeatDivisor: 4
GridSize: 8

[Metadata]
Title:Difficult Dance
Artist:Hitomi Sato, Junichi Masuda
Creator:chamelepeace710
Version:Master Rank
Source:Pokemon
Tags:contest super diamond pearl platinum dansu muzukashii

[Difficulty]
HPDrainRate:6
CircleSize:4
OverallDifficulty:6
ApproachRate:8
SliderMultiplier:2.5
SliderTickRate:1

[Events]
//Background and Video events
0,0,"contest-dance.png"
//Break Periods
2,58613,61665
//Storyboard Layer 0 (Background)
//Storyboard Layer 1 (Fail)
//Storyboard Layer 2 (Pass)
//Storyboard Layer 3 (Foreground)
Sprite,Foreground,Centre,"cooltext510081035.png",320,240 M,0,61915,,477,365 R,0,61915,,-0.4710394 F,0,61915,62415,0,1 S,0,61915,62415,0.1,0.9089603 F,0,62415,78421,1 F,0,78421,79421,1,0
//Storyboard Sound Samples
//Background Colour Transformations
3,100,163,162,255

[TimingPoints]
395,500.166722240747,4,1,0,50,1,0
61895,-66.6666666666667,4,1,0,50,0,0
62415,-66.6666666666667,4,1,0,50,0,1
74419,-66.6666666666667,4,1,0,50,0,0

[Colours]
Combo1 : 236,0,118
Combo2 : 0,128,255
Combo3 : 255,128,192
Combo4 : 255,255,0

[HitObjects]
112,80,395,1,0
64,192,645,1,0
160,272,895,1,8
256,192,1145,1,0
400,80,1395,5,0
448,192,1645,1,0
352,272,1895,1,8
256,192,2145,1,0
320,80,2395,6,0,B|192:80,2,125,0|0|8
320,80,3020,1,0
256,192,3270,1,0
176,288,3521,1,0
192,352,3646,1,0
256,368,3771,1,0
320,352,3896,1,8
336,288,4021,1,0
384,240,4146,6,0,B|384:112,1,125
256,112,4646,1,0
192,112,4771,1,0
112,208,5021,1,0
48,192,5146,5,0
32,256,5271,1,0
96,272,5396,1,0
160,288,5521,1,0
224,304,5646,1,0
240,240,5771,1,0
176,224,5896,2,0,B|224:160|288:192,1,125,8|0
208,96,6397,5,4
320,48,6647,1,0
384,48,6772,1,0
480,128,7022,1,0
448,176,7147,1,0
384,176,7272,1,0
352,128,7397,1,0
416,128,7522,1,0
416,256,7772,5,0
416,320,7897,1,8
296,296,8147,2,0,B|304:264|256:240|208:264|216:296,1,125
96,320,8647,1,0
48,272,8772,1,0
48,208,8897,2,0,B|0:144|64:96,1,125,8|0
112,144,9272,2,0,B|160:80|96:32,2,125,0|0|0
128,208,9898,1,8
256,192,10148,1,0
208,80,10398,6,0,B|224:48|256:32|288:48|304:80,1,125
416,144,10898,2,0,B|400:176|368:192|336:176|320:144,1,125,8|0
368,96,11273,1,0
256,160,11523,1,0
272,224,11648,1,0
320,272,11773,1,0
384,288,11898,1,8
272,352,12148,1,0
160,304,12399,6,0,B|112:256,3,62.5
48,256,12899,2,0,B|0:208,3,62.5,8|0|0|0
48,160,13399,2,0,B|64:96,3,62.5
128,96,13899,1,8
208,192,14149,1,0
272,80,14399,5,4
336,96,14524,1,0
352,160,14649,2,0,B|384:224|448:240,1,125,0|8
352,336,15149,1,0
288,320,15274,1,0
224,304,15400,1,0
160,288,15525,1,0
144,152,15775,2,0,B|80:136,1,62.5,0|8
176,64,16150,6,0,B|256:176|416:112,1,250
464,96,16775,1,0
496,160,16900,2,0,B|464:224|384:240,1,125,8|0
336,256,17275,2,0,B|336:336|432:352,2,125
336,192,17900,2,0,B|272:160|208:208,1,125,8|0
256,320,18401,5,2
256,64,18901,1,10
160,288,19401,5,0
192,224,19526,1,0
256,192,19651,1,0
320,224,19776,1,0
352,288,19901,1,8
448,192,20151,1,0
448,80,20401,5,2
64,304,20901,1,10
112,64,21402,5,0
152,112,21527,1,0
200,144,21652,1,0
256,168,21777,1,0
312,144,21902,1,8
360,112,22027,1,0
400,64,22152,1,0
256,64,22402,6,0,B|256:192,1,125,4|0
256,192,22777,2,0,B|136:192|160:320,1,187.5,2|2
256,320,23402,6,0,B|336:320|352:256,1,125
352,256,23777,2,0,B|367:192|447:192,1,125,2|0
447,192,24152,1,2
352,112,24403,6,0,B|288:64|224:112,1,125
235,104,24778,2,2,B|144:168|48:128,3,187.5
128,32,26153,1,0
256,48,26403,5,0
320,64,26528,1,0
384,80,26653,1,0
448,96,26778,1,2
336,144,27028,1,0
336,144,27153,1,2
256,240,27404,2,0,B|208:288|128:272,1,125
80,240,27779,2,0,B|32:192|48:112,1,125,2|0
80,64,28154,1,2
208,48,28404,6,0,B|272:48,3,62.5,2|0|8|0
256,112,28904,2,0,B|320:112,3,62.5,2|0|8|0
304,176,29404,2,0,B|368:176,3,62.5,2|0|8|0
352,240,29904,2,0,B|416:240,3,62.5,10|8|0|0
400,304,30405,6,0,B|336:352|288:288,1,125
240,256,30780,2,0,B|176:208|112:272,1,125,2|0
64,272,31155,2,0,B|32:208,1,62.5,2|0
48,160,31405,2,0,B|96:112|80:32,1,125
208,64,31905,1,2
208,64,32030,2,0,B|256:112|320:128,1,125
320,64,32405,6,0,B|384:-16|496:16,2,187.5,0|2|2
224,144,33406,1,8
240,208,33531,1,0
368,192,33781,1,0
332,240,33906,1,8
284,280,34031,1,0
224,296,34156,1,0
112,256,34406,6,0,B|48:224|80:144,1,125,2|0
96,96,34781,2,0,B|128:32|208:32,1,125,2|0
256,64,35156,1,2
368,128,35406,2,0,B|368:272|480:352,2,250,2|2|2
256,64,36657,5,0
128,96,36907,2,0,B|64:144|96:208,1,125,8|0
144,240,37282,2,0,B|112:320|32:320,2,125
208,224,37907,1,8
208,224,38157,1,0
256,112,38407,5,2
256,368,38907,1,2
480,240,39408,2,0,B|480:176,1,62.5
416,208,39658,2,0,B|416:144,1,62.5,8|0
352,176,39908,2,0,B|352:240,1,62.5
288,208,40158,2,0,B|288:272,1,62.5,8|0
224,240,40408,5,2
48,64,40908,1,2
144,288,41408,2,0,B|144:224,1,62.5
80,240,41658,2,0,B|80:176,1,62.5,8|0
144,176,41908,2,8,B|144:96,1,62.5
208,112,42158,2,0,B|208:48,1,62.5
256,16,42409,5,2
352,96,42659,1,0
400,128,42784,1,0
448,96,42909,1,8
480,224,43159,1,0
400,320,43409,2,0,B|480:304|496:384,2,125,0|0|8
304,240,44159,1,0
224,336,44409,6,0,B|144:368|96:288,1,125
80,256,44784,2,8,B|16:144|96:64,1,187.5
192,32,45410,1,0
192,32,45535,1,8
288,128,45785,2,0,B|352:224|448:208,1,187.5,8|0
464,144,46285,1,0
440,88,46410,6,0,B|392:24|312:40,1,125
224,96,46910,1,8
224,96,47035,2,0,B|160:176|48:144,1,187.5
128,240,47660,1,0
140,300,47785,1,0
192,336,47910,1,8
256,340,48035,1,0
320,336,48160,1,0
372,300,48285,1,0
384,240,48411,1,0
288,192,48661,5,0
224,192,48786,1,8
256,64,49036,1,0
320,64,49161,1,8
352,192,49411,1,0
316,240,49536,1,0
256,256,49661,1,8
196,240,49786,1,0
160,192,49911,1,8
48,256,50161,1,8
80,128,50411,5,0
144,112,50536,1,0
192,64,50661,1,0
320,64,50911,2,0,B|368:112|432:128,2,125,8|0|0
256,176,51662,1,0
168,264,51912,2,0,B|176:336|256:360|336:336|344:264,1,250,8|0
448,200,52662,5,0
448,200,52787,2,0,B|512:104|416:40|368:72,1,187.5,2|2
248,144,53412,1,2
248,144,53537,2,0,B|152:240|216:352|312:352|360:208|264:192|248:256,1,312.5,0|2
160,296,54413,6,0,B|176:360|256:384|336:360|352:296,3,250
384,176,56163,1,0
336,136,56288,1,0
352,80,56413,2,0,B|336:16|256:-8|176:16|160:80,4,250,0|0|0|0|6
160,64,62415,5,0
80,224,62665,1,0
144,288,62790,1,8
320,336,63040,1,0
416,320,63165,1,8
480,248,63290,1,0
488,152,63416,1,0
456,64,63541,1,8
272,64,63791,1,0
176,64,63916,2,0,B|144:64|144:64|96:64|96:64|64:64|64:64|16:64|16:112|16:112|16:160|64:160|64:160|96:160|96:160|144:160|144:160|176:160,1,374.999988824129,8|0
352,160,64666,5,0
288,224,64791,1,8
160,368,65041,1,0
224,304,65166,1,8
148,232,65291,1,0
80,304,65416,1,0
16,240,65541,1,8
16,48,65791,5,0
16,48,65916,2,0,B|16:112|16:112|16:144|48:144|48:144|128:144,2,187.499994412065,8|0|4
208,48,66667,1,0
208,144,66792,1,8
112,304,67042,1,0
192,352,67167,1,8
288,368,67292,1,0
384,352,67417,1,0
464,304,67542,1,8
352,224,67792,5,0
352,128,67917,2,0,B|272:128|272:224|192:208,3,187.499994412065,8|8|0|0
96,208,68792,1,0
144,128,68917,2,2,B|144:32|144:32|144:0|112:0|112:0|32:0|32:0|0:0|0:32|0:32|0:128,2,374.999988824129
336,128,70168,1,0
240,288,70418,6,0,B|432:288,1,187.499994412065,0|0
368,208,70793,2,0,B|176:208,1,187.499994412065,8|0
80,208,71168,1,8
32,128,71293,1,0
80,48,71418,1,0
128,128,71543,1,8
320,128,71793,1,0
224,128,71918,1,8
416,128,72168,2,2,B|416:208|416:208|416:240|384:240|384:240|256:240|256:240|224:240|224:272|224:272|224:336,1,374.999988824129
128,336,72794,6,0,B|32:336|32:240|128:240,1,187.499994412065,8|0
128,144,73169,1,8
32,176,73294,1,0
48,80,73419,1,0
144,48,73544,1,8
336,32,73794,1,0
432,32,73919,1,8
336,192,74169,1,0
432,304,74419,5,0
256,368,74669,1,0
80,304,74919,1,8
256,16,75420,1,0
80,80,75670,1,0
256,144,75920,1,8
432,80,76170,1,0
400,256,76420,2,0,B|384:192|320:144|256:128|192:144|128:192|112:256,2,374.999988824129,0|8|0
256,384,77670,5,0
256,288,77795,1,0
256,192,77920,1,8
256,96,78045,1,0
256,0,78170,1,0
112,112,78421,5,0
16,96,78546,1,0
80,16,78671,1,0
400,272,79171,5,0
496,288,79296,1,0
432,368,79421,1,4
