osu file format v9

[General]
AudioFilename: 50 Dance - Hard.mp3
AudioLeadIn: 2000
PreviewTime: 6370
Countdown: 0
SampleSet: Normal
StackLeniency: 0.7
Mode: 0
LetterboxInBreaks: 0

[Editor]
DistanceSpacing: 1
BeatDivisor: 4
GridSize: 8

[Metadata]
Title:Difficult Dance
Artist:Hitomi Sato, Junichi Masuda
Creator:chamelepeace710
Version:Great Rank
Source:Pokemon
Tags:contest super diamond pearl platinum dansu muzukashii

[Difficulty]
HPDrainRate:5
CircleSize:4
OverallDifficulty:5
ApproachRate:6
SliderMultiplier:2
SliderTickRate:1

[Events]
//Background and Video events
0,0,"contest-dance.png"
//Break Periods
2,38607,41359
2,58614,61365
//Storyboard Layer 0 (Background)
//Storyboard Layer 1 (Fail)
//Storyboard Layer 2 (Pass)
//Storyboard Layer 3 (Foreground)
//Storyboard Sound Samples
//Background Colour Transformations
3,100,163,162,255

[TimingPoints]
395,500.166722240747,4,1,1,50,1,0
35645,-100,4,1,1,50,0,0
47270,-100,4,1,2,50,0,0
47520,-100,4,1,1,50,0,0
49270,-100,4,1,2,50,0,0
49770,-100,4,1,1,50,0,0
62415,-100,4,1,1,50,0,1
74419,-100,4,1,1,50,0,0

[Colours]
Combo1 : 236,0,118
Combo2 : 0,128,255
Combo3 : 255,128,192
Combo4 : 255,255,0

[HitObjects]
144,128,395,2,0,B|192:96|240:128,2,100,0|0|8
368,256,1395,2,0,B|320:288|272:256,2,100,0|0|8
400,64,2395,5,0
256,192,2895,1,8
112,64,3396,1,0
208,32,3646,2,0,B|256:0|304:32,1,100,0|8
112,320,4396,5,0
256,192,4896,1,8
400,320,5396,1,0
304,352,5646,2,0,B|256:384|208:352,1,100,0|8
256,272,6146,1,0
160,288,6397,6,0,B|96:192|160:96,1,200,4|8
256,64,7147,1,0
352,96,7397,2,0,B|416:192|352:288,1,200,0|8
160,336,8397,5,0
64,272,8647,1,0
128,176,8897,2,0,B|176:112|96:16|16:80,1,200,8|0
16,192,9648,1,0
128,176,9898,2,0,B|192:96|240:192|320:96,3,200,8|0|8|0
416,48,11648,1,0
400,160,11898,2,0,B|432:208|496:208,1,100,8|0
400,288,12399,6,0,B|256:192|112:288,1,300
48,208,13399,2,0,B|128:192|160:112|128:32,1,200,0|8
224,96,14149,1,0
256,192,14399,6,0,B|368:144|448:224,1,200,4|8
352,256,15149,1,0
432,320,15400,2,0,B|320:368|240:288,1,200,0|8
160,256,16150,2,0,B|48:224|48:96,1,200
112,32,16900,2,0,B|192:0|256:48,2,150,8|0|0
176,112,17900,1,8
256,176,18150,1,0
336,112,18401,5,2
336,304,18901,1,2
144,384,19401,2,2,B|96:352|64:304|96:256|144:224,1,200
256,64,20401,5,2
256,256,20901,1,2
448,224,21402,2,2,B|496:192|528:144|496:96|448:64,1,200
256,192,22402,6,0,B|256:80,1,100,4|0
352,128,22902,2,0,B|352:240,1,100,8|0
448,192,23402,2,0,B|448:80,2,100,0|0|8
432,288,24152,1,0
344,336,24403,6,0,B|264:384|200:336,2,150,0|0|8
272,264,25403,2,0,B|192:216|128:264,2,150,0|0|8
328,184,26403,1,0
256,112,26653,2,0,B|256:64,2,50,0|0|8
184,184,27153,1,0
256,256,27404,2,0,B|256:360|360:376,2,150,0|0|8
256,112,28404,5,0
160,288,28904,1,8
352,288,29404,1,0
256,320,29654,1,8
256,224,29904,1,8
256,128,30154,1,0
256,32,30405,6,0,B|192:96|112:64,2,150,4|8|8
352,64,31405,2,0,B|432:128,3,100,0|0|2|0
368,208,32405,2,0,B|400:272|496:288,2,150,4|8|8
272,176,33406,2,0,B|176:208,3,100,0|0|2|0
160,112,34406,5,2
48,208,34781,1,2
160,304,35156,1,2
208,208,35406,2,0,B|272:136|336:208|336:208|400:280|464:208,1,300
400,144,36407,5,0
208,80,36907,1,8
80,224,37407,1,0
176,256,37657,1,0
96,320,37907,1,8
192,352,38157,1,0
272,288,38407,1,2
256,64,42409,6,0,B|160:128|64:64,1,200,4|8
256,144,43409,2,0,B|352:80|448:144,1,200,0|8
256,224,44409,2,0,B|256:352|64:352|64:224,1,300
160,224,45410,2,0,B|160:160|160:160|160:80|64:80,1,200,0|8
272,96,46410,6,0,B|384:128|400:240|352:336|256:352|160:336|112:240|128:128|240:96,1,600,0|8
304,16,48160,1,0
384,80,48411,6,0,B|448:144|464:256|416:368|352:384|256:432|160:384|96:368|48:256|64:144|128:80,1,800
240,64,50661,1,0
288,176,50911,1,8
80,288,51412,2,0,B|96:336|144:368,2,100,0|0|8
256,208,52412,5,0
448,176,52912,1,8
320,16,53412,1,0
128,80,53912,1,8
160,272,54413,5,0
32,112,54913,1,8
32,304,55413,1,0
160,160,55913,1,8
256,216,56163,1,0
352,272,56413,5,0
480,112,56913,1,8
480,304,57414,1,0
352,224,57914,1,8
256,168,58164,1,0
160,112,58414,5,0
256,192,62415,12,8,65916
176,96,66417,5,4
256,144,66667,1,0
336,96,66917,1,8
336,288,67417,1,0
256,240,67667,1,0
176,288,67917,1,8
48,128,68417,6,0,B|32:240|112:320,1,200,0|8
272,208,69418,2,0,B|288:96|208:16,1,200,0|8
160,224,70418,5,0
240,288,70668,1,0
336,320,70918,1,8
480,176,71418,2,0,B|512:96|432:32|368:80,1,200,0|8
368,176,72168,1,0
256,192,72419,12,8,73919
32,192,74419,6,0,B|96:112|160:192|160:192|224:272|288:192,1,300
288,304,75420,2,0,B|224:384|160:304|160:304|96:224|32:304,1,300
64,192,76420,5,0
256,192,76920,1,8
448,192,77420,1,0
256,192,77920,1,8
256,64,78421,6,0,B|256:16,2,50
256,320,79171,2,0,B|256:368,2,50,0|0|4
