osu file format v9

[General]
AudioFilename: 50 Dance - Hard.mp3
AudioLeadIn: 2000
PreviewTime: 6370
Countdown: 0
SampleSet: Normal
StackLeniency: 0.7
Mode: 0
LetterboxInBreaks: 0

[Editor]
DistanceSpacing: 0.8
BeatDivisor: 4
GridSize: 8

[Metadata]
Title:Difficult Dance
Artist:Hitomi Sato, Junichi Masuda
Creator:chamelepeace710
Version:Easy Rank
Source:Pokemon
Tags:contest super diamond pearl platinum dansu muzukashii

[Difficulty]
HPDrainRate:3
CircleSize:3
OverallDifficulty:2
ApproachRate:3
SliderMultiplier:1.4
SliderTickRate:1

[Events]
//Background and Video events
0,0,"contest-dance.png"
//Break Periods
2,38607,40969
2,58614,60975
//Storyboard Layer 0 (Background)
//Storyboard Layer 1 (Fail)
//Storyboard Layer 2 (Pass)
//Storyboard Layer 3 (Foreground)
//Storyboard Sound Samples
//Background Colour Transformations
3,100,163,162,255

[TimingPoints]
395,500.166722240747,4,1,0,50,1,0
2520,-100,4,1,1,50,0,0
3020,-100,4,1,2,50,0,0
32770,-100,4,1,1,50,0,0
33020,-100,4,1,2,50,0,0
36770,-100,4,1,1,50,0,0
47020,-100,4,1,2,50,0,0
47645,-100,4,1,1,50,0,0
48270,-100,4,1,2,50,0,0
48520,-100,4,1,1,50,0,0
49270,-100,4,1,2,50,0,0
49645,-100,4,1,1,50,0,0
62415,-100,4,1,1,50,0,1
71145,-100,4,1,2,50,0,1
71770,-100,4,1,1,50,0,1
72270,-100,4,1,2,50,0,1
72770,-100,4,1,1,50,0,1
73270,-100,4,1,2,50,0,1
74419,-100,4,1,2,50,0,0

[Colours]
Combo1 : 236,0,118
Combo2 : 0,128,255
Combo3 : 255,128,192
Combo4 : 255,255,0

[HitObjects]
144,80,395,2,0,B|48:80|64:176,1,140,0|8
144,240,1395,2,0,B|240:240|224:144,1,140,0|8
256,48,2395,2,0,B|464:32|208:320|496:304,1,420,0|8
464,192,4396,1,0
448,80,4896,1,8
344,32,5396,1,0
232,32,5896,1,8
192,128,6397,6,0,B|144:192|64:176,1,140,4|8
112,80,7397,2,0,B|152:8|232:32,1,140,0|8
336,80,8397,1,0
256,160,8897,1,8
256,272,9398,1,0
380,238,9898,1,8
480,288,10398,6,0,B|432:352|352:320,1,140,0|8
256,272,11398,2,0,B|304:208|384:240,1,140,0|8
464,176,12399,2,0,B|480:96|400:48,1,140,0|8
336,144,13399,2,0,B|256:176|208:112,1,140,0|8
288,32,14399,5,4
211,114,14899,1,8
96,144,15400,1,0
176,224,15900,1,8
288,256,16400,1,0
208,336,16900,1,8
96,352,17400,1,0
192,128,18401,6,2,B|256:80|320:128,1,140,2|10
256,224,19401,1,2
368,240,19901,1,2
480,192,20401,6,2,B|432:128|480:64,1,140,2|10
368,32,21402,1,2
304,320,22402,6,0,B|304:240,2,70,0|0|8
192,320,23402,2,0,B|192:240,2,70,0|0|8
96,264,24403,2,0,B|96:120,3,140,0|8|0|8
192,64,26403,6,0,B|192:144,2,70,0|0|8
304,64,27404,2,0,B|304:144,2,70,0|0|8
400,120,28404,1,0
496,176,28904,1,8
416,256,29404,1,0
344,344,29904,1,8
256,272,30405,6,0,B|128:336,3,140,0|8|0|8
112,224,32405,2,0,B|128:144|168:88|256:72|344:88|384:144|400:224,1,420,0|8
384,336,34406,2,0,B|256:272,3,140,0|8|0|8
368,224,36407,2,2,B|336:160|256:112|176:160|144:224,2,280
464,208,42409,6,0,B|448:112|368:48|256:80,1,280,4|0
256,192,43909,2,0,B|256:336,2,140,8|0|8
144,192,45410,1,0
32,192,45910,1,8
96,96,46410,6,0,B|272:0|472:120|392:304,2,490,0|0|8
128,208,50411,1,0
160,320,50911,1,8
272,288,51412,1,0
240,176,51912,1,8
352,144,52412,6,0,B|480:96|528:240|400:288,2,280
256,208,54913,2,0,B|256:352,2,140,8|0|8
144,192,56413,1,0
256,160,56913,2,0,B|256:16,2,140,8|0|8
368,192,58414,1,2
256,192,62415,12,4,64416
256,312,65416,5,8
152,120,66417,6,0,B|176:56|216:40|256:24|296:40|336:56|360:120,1,280,4|0
304,192,67917,1,8
360,264,68417,6,0,B|336:328|296:344|256:360|216:344|176:328|152:264,1,280,4|0
208,192,69918,1,8
96,192,70418,6,0,B|72:96|176:16|336:16|440:96|416:192,2,490,0|0|8
144,288,74419,1,0
368,288,75420,1,0
256,192,76420,12,4,79421
