osu file format v9

[General]
AudioFilename: 37-battle-uxie-mesprit-azelf.mp3
AudioLeadIn: 0
PreviewTime: 27424
Countdown: 3
SampleSet: Normal
StackLeniency: 0.7
Mode: 0
LetterboxInBreaks: 1

[Editor]
DistanceSpacing: 1.2
BeatDivisor: 4
GridSize: 8

[Metadata]
Title:Battle! Yuxie, Emurit, & Agnome
Artist:Hitomi Sato, Junichi Masuda
Creator:v_Enhance
Version:Sinnoh
Source:Pokemon Diamond/Pearl
Tags:diamond pearl thepianist

[Difficulty]
HPDrainRate:8
CircleSize:5
OverallDifficulty:6
ApproachRate:8
SliderMultiplier:2
SliderTickRate:1

[Events]
//Background and Video events
0,0,"bg.jpg"
//Break Periods
2,79285,83496
2,99930,101561
//Storyboard Layer 0 (Background)
//Storyboard Layer 1 (Fail)
//Storyboard Layer 2 (Pass)
//Storyboard Layer 3 (Foreground)
//Storyboard Sound Samples
//Background Colour Transformations
3,100,163,162,255

[TimingPoints]
17150,645.161290322581,4,1,0,54,1,0

[Colours]
Combo1 : 0,128,255
Combo2 : 255,0,128
Combo3 : 255,255,0

[HitObjects]
128,96,17150,5,0
128,96,17633,2,0,B|168:144,2,50
128,216,18279,1,0
168,264,18440,2,0,B|264:272|320:224,1,150
256,120,19246,1,0
256,240,19569,1,0
256,184,19730,1,0
256,368,20214,2,0,B|256:312,2,50
192,104,21020,5,0
360,160,21504,1,0
264,232,21827,1,0
168,160,22149,1,0
192,104,22311,1,0
304,144,23601,5,0
208,144,24085,1,0
208,208,24408,1,0
352,312,24891,1,0
352,72,25375,1,0
352,192,25698,1,0
96,80,27472,5,0
144,192,27795,1,0
208,296,28117,2,0,B|212:312|312:296|448:240|464:8,1,400
424,64,29730,5,0
304,88,30053,1,0
320,144,30214,1,0
336,200,30375,1,0
352,256,30537,1,0
296,272,30698,2,0,B|96:328,2,200
192,64,32633,6,0,B|256:64,1,50
288,64,32956,2,0,B|288:128,1,50
288,176,33279,2,0,B|216:176,4,50
56,240,34569,6,0,B|144:176,1,100
88,72,35214,1,0
192,160,35537,2,0,B|64:216,1,100
64,312,36182,1,0
192,336,36504,1,0
358,163,37149,1,0
358,163,37311,1,0
256,192,37795,12,0,39730
256,192,40375,12,0,42311
64,168,42956,1,0
64,48,43279,1,0
176,96,43601,2,0,B|208:96|208:96|208:128|208:128,2,50
176,216,44246,2,0,B|382:216|382:152|350:152,1,200
448,216,45537,5,0
448,336,45860,1,0
336,288,46182,2,0,B|304:288|304:288|304:256|304:256,2,50
336,168,46827,2,0,B|130:168|130:232|162:232,1,200
400,64,48117,6,0,B|400:152,1,50
400,176,48440,1,0
400,296,48762,1,0
280,296,49085,2,0,B|216:296,2,50
280,176,49730,1,0
280,296,50053,1,0
256,192,50698,5,0
384,192,51020,1,0
384,256,51182,1,0
320,256,51343,1,0
200,256,51666,1,0
200,256,51988,2,0,B|200:160,6,50
176,104,53279,6,0,B|296:104,2,100
176,160,54085,1,0
176,216,54246,1,0
176,280,54408,1,0
232,280,54569,2,0,B|336:280,2,100
232,160,55537,1,0
232,40,55859,2,0,B|432:40,2,200
128,96,58440,6,0,B|224:288,1,200
392,248,59730,2,0,B|296:56,1,200
128,96,61020,2,0,B|224:288,1,200
392,216,62311,2,0,B|296:24,1,200,0|0
224,64,63601,2,0,B|192:64|192:64|176:80|160:80|144:96|144:112|144:128|144:144|144:160|144:192|144:208|144:224|144:240|144:256|144:272|176:272|176:304|192:304|208:288|224:304|240:288|256:304|272:288|288:304|304:288|320:304|336:304|336:272|368:272|368:256|368:240|368:224|368:208|368:192|368:160|368:144|368:128|368:112|368:96|352:80|336:80|320:64|320:64|288:64,1,700
272,80,66182,5,0
316,96,66343,1,0
349,128,66504,1,0
367,172,66666,1,0
365,219,66827,1,0
344,261,66988,1,0
308,292,67150,1,0
263,304,67311,1,0
217,298,67472,1,0
177,273,67633,1,0
151,234,67795,1,0
142,187,67956,1,0
154,142,68117,1,0
183,105,68279,1,0
225,83,68440,1,0
152,80,68762,5,0
72,168,69085,1,0
128,272,69407,1,0
232,328,69730,2,0,B|336:328|392:256|384:72,1,300
384,113,71020,1,0
96,64,71343,6,0,B|208:80|272:192|384:240|464:176,2,400
128,64,74569,5,0
256,264,75214,1,0
384,64,75859,1,0
320,160,76182,1,0
192,160,76504,1,0
256,192,77150,12,0,79085
192,64,84246,5,0
224,64,84891,2,0,B|288:192|384:224|400:224|400:224,2,200
128,64,86827,2,0,B|336:64|336:352,1,400
128,96,89408,6,0,B|128:288|224:320|288:320|352:320|448:288|448:64,1,600
352,64,91988,6,0,B|288:64,1,50
256,64,92311,6,0,B|192:64,1,50
80,64,93279,6,0,B|32:112,4,50
256,192,94569,5,0
256,192,94730,1,0
271,199,94891,1,0
272,208,95052,1,0
267,218,95213,1,0
256,224,95374,1,0
243,226,95535,1,0
229,220,95696,1,0
217,209,95857,1,0
211,192,96018,1,0
212,174,96179,1,0
221,157,96340,1,0
236,143,96501,1,0
256,137,96662,1,0
279,139,96823,1,0
299,150,96984,1,0
314,169,97145,5,0
320,192,97311,1,0
317,218,97467,1,0
304,240,97628,1,0
283,257,97789,1,0
256,264,97950,1,0
228,260,98111,1,0
203,246,98272,1,0
186,222,98433,1,0
178,193,98594,1,0
183,162,98755,1,0
199,135,98916,1,0
225,116,99077,1,0
256,108,99238,1,0
289,113,99399,1,0
318,131,99560,1,0
352,160,99730,1,0
352,128,102311,5,0
352,192,102633,1,0
352,256,102956,2,0,B|128:256,1,200
192,64,104246,1,0
192,64,104891,6,0,B|192:304,1,200
256,288,106182,2,0,B|256:64,1,200
160,160,107472,1,0
256,96,107795,1,0
352,160,108117,1,0
320,256,108440,1,0
192,256,108762,1,0
256,192,109891,1,0
256,192,110053,1,0
