osu file format v9

[General]
AudioFilename: 37-battle-uxie-mesprit-azelf.mp3
AudioLeadIn: 0
PreviewTime: 27424
Countdown: 0
SampleSet: Normal
StackLeniency: 0.7
Mode: 0
LetterboxInBreaks: 1

[Editor]
DistanceSpacing: 1
BeatDivisor: 4
GridSize: 8

[Metadata]
Title:Battle! Yuxie, Emurit, & Agnome
Artist:Hitomi Sato, Junichi Masuda
Creator:v_Enhance
Version:Hoenn
Source:Pokemon Diamond/Pearl
Tags:diamond pearl thepianist

[Difficulty]
HPDrainRate:4
CircleSize:5
OverallDifficulty:8
ApproachRate:8
SliderMultiplier:2
SliderTickRate:1

[Events]
//Background and Video events
0,0,"bg.jpg"
//Break Periods
2,53419,57690
2,79285,83496
2,99930,101561
//Storyboard Layer 0 (Background)
//Storyboard Layer 1 (Fail)
//Storyboard Layer 2 (Pass)
//Storyboard Layer 3 (Foreground)
//Storyboard Sound Samples
//Background Colour Transformations
3,100,163,162,255

[TimingPoints]
17150,645.161290322581,4,1,0,54,1,0

[Colours]
Combo1 : 0,128,255
Combo2 : 255,0,128
Combo3 : 255,255,0

[HitObjects]
128,96,17150,5,0
128,96,17633,2,0,B|224:192,1,100
268,309,18924,1,0
268,309,19246,2,0,B|160:194|159:192,1,150
256,192,21020,12,0,22311
256,185,23601,1,0
172,127,24085,1,0
167,253,24891,1,0
277,232,25375,1,0
144,80,27472,5,0
144,144,27795,1,0
144,208,28117,1,0
144,272,28440,2,0,B|248:272|304:200|304:80,1,250
302,113,29408,1,0
192,112,30053,1,0
168,160,30376,1,0
144,208,30698,1,0
144,272,31021,2,0,B|248:272|304:200|304:80,1,250
151,98,32633,5,0
251,96,32956,1,0
354,98,33279,1,0
354,98,33601,1,0
354,98,33762,1,0
354,98,33924,6,0,B|355:171|354:99,2,50
87,78,35214,5,0
152,152,35537,1,0
192,192,35698,1,0
224,224,35859,1,0
384,96,36504,1,0
384,296,37149,1,0
344,328,37311,1,0
256,192,37795,12,0,39730
256,192,40375,12,0,42311
257,192,42956,5,0
378,189,44246,2,0,B|141:190,1,200
177,266,45537,5,0
374,331,46827,2,0,B|149:335|146:334,1,200
256,192,48117,5,0
256,192,48440,1,0
256,192,48762,1,0
256,192,49085,1,0
256,192,49246,1,0
256,192,49408,1,0
256,160,49569,1,0
256,128,49730,1,0
256,96,49891,1,0
256,64,50053,1,0
256,192,50698,5,0
256,192,51343,1,0
256,192,51666,1,0
256,192,51988,2,0,B|256:96,6,50
128,96,58440,6,0,B|224:288,1,200
288,256,59730,6,0,B|192:64,1,200
128,96,61020,6,0,B|224:288,1,200
288,256,62311,6,0,B|192:64,1,200,0|0
224,96,63601,6,0,B|224:128|160:128|160:192|160:240|224:256|256:288|288:256|352:240|352:192|352:128|288:128|288:64,1,400
272,80,66182,5,0
316,96,66343,1,0
349,128,66504,1,0
367,172,66666,1,0
365,219,66827,1,0
344,261,66988,1,0
308,292,67150,1,0
263,304,67311,1,0
217,298,67472,1,0
177,273,67633,1,0
151,234,67795,1,0
142,187,67956,1,0
154,142,68117,1,0
183,105,68279,1,0
225,83,68440,1,0
152,144,68762,5,0
152,184,69085,1,0
152,224,69407,1,0
152,264,69730,2,0,B|256:264|312:192|312:72,1,250
256,287,71343,5,0
208,128,72956,1,0
256,128,73279,1,0
296,128,73601,1,0
257,192,73924,5,0
257,192,74891,1,0
216,128,75859,1,0
256,128,76182,1,0
296,128,76504,1,0
256,192,77150,12,0,79085
256,96,84246,5,0
256,128,84569,1,0
256,160,84891,1,0
254,194,85214,1,0
256,224,85537,1,0
256,256,85859,1,0
256,288,86182,1,0
256,320,86504,1,0
256,352,86827,5,0
254,194,88117,5,0
256,192,89085,12,0,93279
224,160,94569,5,0
256,160,94730,1,0
288,160,94891,1,0
320,160,95053,1,0
352,160,95214,5,0
352,192,95375,1,0
352,224,95537,1,0
352,256,95698,1,0
352,288,95859,5,0
320,288,96020,1,0
288,288,96182,1,0
256,288,96343,1,0
224,288,96504,5,0
224,256,96666,1,0
224,224,96827,1,0
224,192,96988,1,0
224,160,97150,5,0
256,160,97311,1,0
288,160,97472,1,0
320,160,97633,1,0
352,160,97795,5,0
352,192,97956,1,0
352,224,98117,1,0
352,256,98279,1,0
352,288,98440,5,0
320,288,98601,1,0
288,288,98762,1,0
256,288,98924,1,0
224,288,99085,5,0
224,256,99246,1,0
224,224,99408,1,0
224,192,99569,1,0
224,160,99730,5,0
256,128,102311,5,0
256,192,102633,5,0
352,192,103279,6,0,B|128:192,1,200
192,64,104891,6,0,B|192:320,1,250
256,288,106182,6,0,B|256:64,1,200
224,128,107472,5,0
192,192,107795,1,0
256,224,108117,1,0
320,192,108440,1,0
288,128,108762,1,0
256,192,109408,5,0
256,192,110053,5,0
256,192,111343,1,0
