osu file format v14

[General]
AudioFilename: Encounter! (Many things).mp3
AudioLeadIn: 2000
PreviewTime: 400
Countdown: 0
SampleSet: Normal
StackLeniency: 0.7
Mode: 1
LetterboxInBreaks: 0
WidescreenStoryboard: 0

[Editor]
Bookmarks: 1906
DistanceSpacing: 1
BeatDivisor: 4
GridSize: 4
TimelineZoom: 1.7

[Metadata]
Title:Shisen! Karate Ou
TitleUnicode:視線!からておう
Artist:Hitomi Sato
ArtistUnicode:佐藤仁美
Creator:Baraatje123
Version:lepidon! - Muzukashii
Source:ポケットモンスター ダイヤモンド・パール
Tags:lepidopodus Irreversible EvilElvis Poketto Monsutā Daiyamondo & Pāru Pocket Monsters Nintendo Pokémon Pokemon Diamond Pearl Platinum Version Psychic Martial Arts Police Officer Black Belt
BeatmapID:764080
BeatmapSetID:338295

[Difficulty]
HPDrainRate:5
CircleSize:5
OverallDifficulty:5
ApproachRate:5
SliderMultiplier:1.4
SliderTickRate:4

[Events]
//Background and Video events
0,0,"Background.jpg",0,0
//Break Periods
//Storyboard Layer 0 (Background)
//Storyboard Layer 1 (Fail)
//Storyboard Layer 2 (Pass)
//Storyboard Layer 3 (Foreground)
//Storyboard Sound Samples

[TimingPoints]
400.984219565645,420.31523642732,4,1,0,100,1,0
7126,-100,4,1,0,100,0,1
11329,420.31523642732,4,1,0,100,1,0
16372,-100,4,1,0,100,0,1
20575,420.31523642732,4,1,0,100,1,0
25618,-100,4,1,0,100,0,1
29821,420.31523642732,4,1,0,100,1,0
30661,-100,4,1,0,90,0,0
31502,-100,4,1,0,80,0,0
32342,-100,4,1,0,70,0,0
33183,-100,4,1,0,60,0,0

[Colours]
Combo1 : 255,0,0
Combo2 : 0,210,210
Combo3 : 137,245,175
Combo4 : 255,128,64
Combo5 : 255,117,255
Combo6 : 0,0,234

[HitObjects]
418,180,400,6,0,L|-16:232,1,420
351,276,2082,1,0,0:0:0:0:
351,276,2292,1,0,0:0:0:0:
351,276,2397,1,0,0:0:0:0:
410,274,2502,1,0,0:0:0:0:
292,201,2922,1,0,0:0:0:0:
298,203,3133,1,0,0:0:0:0:
333,231,3343,1,0,0:0:0:0:
394,223,3763,1,0,0:0:0:0:
394,223,3973,1,0,0:0:0:0:
394,223,4078,1,0,0:0:0:0:
394,223,4183,1,0,0:0:0:0:
394,223,4604,1,0,0:0:0:0:
394,223,4814,1,0,0:0:0:0:
394,223,5024,1,0,0:0:0:0:
354,244,5444,1,8,0:0:0:0:
356,248,5549,1,8,0:0:0:0:
355,250,5654,1,8,0:0:0:0:
350,257,5865,1,8,0:0:0:0:
384,277,6285,1,8,0:0:0:0:
384,277,6390,1,8,0:0:0:0:
384,277,6495,1,8,0:0:0:0:
384,277,6705,1,8,0:0:0:0:
384,277,7126,1,8,0:0:0:0:
384,277,7231,1,8,0:0:0:0:
384,277,7441,1,8,0:0:0:0:
384,277,7546,1,8,0:0:0:0:
458,325,7756,1,8,0:0:0:0:
384,277,7966,1,8,0:0:0:0:
384,277,8071,1,8,0:0:0:0:
384,277,8281,1,8,0:0:0:0:
384,277,8386,1,8,0:0:0:0:
256,192,8807,12,0,9437,0:0:0:0:
418,156,9647,6,0,L|-3:272,1,420
274,192,11329,1,0,0:0:0:0:
312,212,11539,1,0,0:0:0:0:
312,212,11644,1,0,0:0:0:0:
312,212,11749,1,0,0:0:0:0:
312,212,11959,1,8,0:0:0:0:
312,212,12169,1,0,0:0:0:0:
312,212,12379,1,0,0:0:0:0:
312,212,12589,1,0,0:0:0:0:
363,258,13010,1,0,0:0:0:0:
363,258,13220,1,0,0:0:0:0:
363,258,13325,1,0,0:0:0:0:
363,258,13430,1,0,0:0:0:0:
363,258,13640,1,8,0:0:0:0:
363,258,13850,1,0,0:0:0:0:
363,258,14061,1,0,0:0:0:0:
363,258,14271,1,0,0:0:0:0:
417,207,14691,1,8,0:0:0:0:
417,207,14796,1,8,0:0:0:0:
417,207,14901,1,8,0:0:0:0:
417,207,15111,1,8,0:0:0:0:
368,206,15427,1,8,0:0:0:0:
368,206,15532,1,8,0:0:0:0:
368,206,15637,1,8,0:0:0:0:
368,206,15742,1,8,0:0:0:0:
368,206,15952,1,8,0:0:0:0:
396,286,16372,1,8,0:0:0:0:
396,286,16477,1,8,0:0:0:0:
396,286,16688,1,8,0:0:0:0:
396,286,16793,1,8,0:0:0:0:
396,286,17003,1,0,0:0:0:0:
396,286,17213,1,8,0:0:0:0:
396,286,17318,1,8,0:0:0:0:
396,286,17528,1,8,0:0:0:0:
396,286,17633,1,8,0:0:0:0:
256,192,18054,12,0,18684,0:0:0:0:
464,161,18894,6,0,L|26:242,1,420
202,198,20575,1,0,0:0:0:0:
247,199,20785,1,0,0:0:0:0:
247,199,20890,1,0,0:0:0:0:
247,199,20995,1,0,0:0:0:0:
407,196,21205,1,8,0:0:0:0:
411,240,21415,1,0,0:0:0:0:
441,250,21625,1,0,0:0:0:0:
396,277,21730,1,0,0:0:0:0:
396,277,21835,1,0,0:0:0:0:
392,235,22256,1,0,0:0:0:0:
392,235,22466,1,0,0:0:0:0:
392,235,22571,1,0,0:0:0:0:
392,235,22676,1,0,0:0:0:0:
442,197,22886,1,8,0:0:0:0:
418,246,23096,1,0,0:0:0:0:
423,252,23307,1,0,0:0:0:0:
423,252,23412,1,0,0:0:0:0:
423,252,23517,1,0,0:0:0:0:
451,192,23937,1,8,0:0:0:0:
383,218,24042,1,8,0:0:0:0:
383,218,24147,1,8,0:0:0:0:
383,218,24357,1,8,0:0:0:0:
383,218,24673,1,8,0:0:0:0:
383,218,24778,1,8,0:0:0:0:
383,218,24883,1,8,0:0:0:0:
383,218,24988,1,8,0:0:0:0:
383,218,25198,1,8,0:0:0:0:
419,209,25408,1,8,0:0:0:0:
383,218,25618,1,8,0:0:0:0:
383,218,25723,1,8,0:0:0:0:
383,218,25934,1,8,0:0:0:0:
383,218,26039,1,8,0:0:0:0:
482,199,26249,1,0,0:0:0:0:
431,216,26459,1,8,0:0:0:0:
431,216,26564,1,8,0:0:0:0:
405,206,26774,1,8,0:0:0:0:
405,206,26879,1,8,0:0:0:0:
256,192,27300,12,0,27930,0:0:0:0:
411,183,28140,6,0,L|-8:278,1,420
220,188,29821,1,0,0:0:0:0:
226,188,30031,1,0,0:0:0:0:
226,188,30136,1,0,0:0:0:0:
472,187,30241,1,8,0:0:0:0:
425,206,30451,1,0,0:0:0:0:
409,206,30661,1,0,0:0:0:0:
274,197,30871,1,0,0:0:0:0:
274,197,30976,1,0,0:0:0:0:
274,197,31081,1,0,0:0:0:0:
274,197,31502,1,0,0:0:0:0:
274,197,31712,1,0,0:0:0:0:
274,197,31817,1,0,0:0:0:0:
451,187,31922,1,8,0:0:0:0:
449,216,32132,1,0,0:0:0:0:
376,243,32342,1,0,0:0:0:0:
368,244,32553,1,0,0:0:0:0:
368,244,32658,1,0,0:0:0:0:
368,244,32763,1,0,0:0:0:0:
320,112,33183,1,12,0:0:0:0:
