osu file format v14

[General]
AudioFilename: Encounter! (Many things).mp3
AudioLeadIn: 2000
PreviewTime: 400
Countdown: 0
SampleSet: Soft
StackLeniency: 0.7
Mode: 0
LetterboxInBreaks: 0
WidescreenStoryboard: 0

[Editor]
Bookmarks: 1906
DistanceSpacing: 1
BeatDivisor: 4
GridSize: 4
TimelineZoom: 1

[Metadata]
Title:Shisen! Karate Ou
TitleUnicode:視線!からておう
Artist:Hitomi Sato
ArtistUnicode:佐藤仁美
Creator:Baraatje123
Version:Hard
Source:ポケットモンスター ダイヤモンド・パール
Tags:lepidopodus Irreversible EvilElvis Poketto Monsutā Daiyamondo & Pāru Pocket Monsters Nintendo Pokémon Pokemon Diamond Pearl Platinum Version Psychic Martial Arts Police Officer Black Belt
BeatmapID:748443
BeatmapSetID:338295

[Difficulty]
HPDrainRate:6
CircleSize:4
OverallDifficulty:6
ApproachRate:7
SliderMultiplier:2
SliderTickRate:4

[Events]
//Background and Video events
0,0,"Background.jpg",0,0
//Break Periods
//Storyboard Layer 0 (Background)
//Storyboard Layer 1 (Fail)
//Storyboard Layer 2 (Pass)
//Storyboard Layer 3 (Foreground)
//Storyboard Sound Samples

[TimingPoints]
400.984219565645,420.31523642732,4,2,1,80,1,0
11329,420.31523642732,4,2,1,80,1,0
20575,420.31523642732,4,2,1,80,1,0
20575,-66.6666666666667,4,2,1,80,0,1
21415,-100,4,2,1,80,0,1
22256,-66.6666666666667,4,2,1,80,0,1
23096,-100,4,2,1,80,0,1
23937,-66.6666666666667,4,2,1,80,0,1
29821,420.31523642732,4,2,1,35,1,0
29821,-200,4,2,1,35,0,0
30241,-200,4,2,1,30,0,0
30661,-200,4,2,1,25,0,0
31081,-200,4,2,1,20,0,0
31502,-200,4,2,1,15,0,0
31922,-200,4,2,1,10,0,0
32342,-200,4,2,1,5,0,0

[Colours]
Combo1 : 255,0,0
Combo2 : 0,210,210
Combo3 : 137,245,175
Combo4 : 255,128,64
Combo5 : 255,117,255
Combo6 : 0,0,234

[HitObjects]
132,148,400,6,0,L|144:88,2,50,2|2|0,0:0|0:0|0:0,0:0:0:0:
116,208,716,2,0,B|116:260|116:260|152:304,1,100,0|2,0:0|0:0,0:0:0:0:
208,304,1031,2,0,P|256:292|304:304,1,100,0|8,0:0|0:0,0:0:0:0:
365,297,1346,2,0,B|396:260|396:260|396:208,1,100,8|8,3:0|0:0,0:0:0:0:
371,151,1661,2,0,P|417:142|423:95,1,100,0|4,0:0|1:0,0:0:0:0:
304,80,2082,5,14,1:3:0:0:
304,80,2187,2,0,P|272:88|196:72,1,100,0|0,0:0|0:0,0:0:0:0:
152,52,2502,2,0,B|160:112|152:136|152:136|136:108,1,100,8|4,0:0|3:0,0:0:0:0:
72,28,2922,1,4,3:0:0:0:
72,28,3133,1,2,1:2:0:0:
56,148,3343,1,6,1:2:0:0:
56,148,3553,1,6,1:2:0:0:
128,244,3763,5,14,1:3:0:0:
128,244,3868,2,0,P|160:236|236:252,1,100,0|0,0:0|0:0,0:0:0:0:
280,272,4183,2,0,B|272:212|280:188|280:188|296:216,1,100,8|4,0:0|3:0,0:0:0:0:
360,296,4603,1,4,3:0:0:0:
360,296,4814,1,2,1:2:0:0:
376,176,5024,1,6,1:2:0:0:
376,176,5234,1,6,1:2:0:0:
452,84,5444,5,6,1:0:0:0:
452,84,5549,2,0,P|404:64|336:72,1,100,0|2,1:0|1:0,0:0:0:0:
312,128,5865,2,0,P|288:96|320:0,1,150,0|0,0:0|1:0,0:0:0:0:
288,8,6285,1,2,1:1:0:0:
256,20,6390,1,2,1:0:0:0:
228,36,6495,2,0,B|208:52|208:52|88:40,1,100,2|0,1:0|1:0,0:0:0:0:
88,148,6915,1,0,1:0:0:0:
88,148,7020,1,0,1:0:0:0:
88,148,7126,5,4,1:2:0:0:
87,147,7231,2,0,P|108:192|149:219,1,100,4|4,1:2|1:2,0:0:0:0:
208,208,7546,2,0,B|256:192|256:192|312:192,1,100,4|4,1:2|1:2,0:0:0:0:
316,76,7966,1,4,1:2:0:0:
316,76,8071,2,0,P|287:35|241:17,1,100,4|4,1:2|1:2,0:0:0:0:
186,39,8386,2,0,B|141:63|141:63|86:74,1,100,4|4,1:2|1:2,0:0:0:0:
20,164,8807,5,0,1:0:0:0:
20,164,9017,1,0,0:0:0:0:
52,280,9227,1,0,1:0:0:0:
52,280,9437,1,0,0:0:0:0:
164,328,9647,2,0,P|224:340|292:320,1,100,0|0,1:0|1:0,0:0:0:0:
260,272,9963,2,0,P|200:260|132:280,1,100,0|0,0:0|1:2,0:0:0:0:
128,264,10278,1,0,0:0:0:0:
96,252,10383,1,0,0:0:0:0:
68,232,10488,6,0,P|52:212|40:184,3,50,8|8|0|8,0:0|0:0|0:0|0:0,0:0:0:0:
20,144,10908,2,0,B|9:121|9:121|16:76|56:56,1,100,0|4,0:0|1:2,0:0:0:0:
140,56,11329,5,14,1:3:0:0:
140,56,11434,2,0,B|164:48|164:48|152:124,1,100,0|0,0:0|0:0,0:0:0:0:
168,132,11749,2,0,B|216:148|216:148|284:144,1,100,8|4,0:0|3:0,0:0:0:0:
372,92,12169,1,4,3:0:0:0:
372,92,12379,1,2,1:2:0:0:
424,200,12589,1,6,1:2:0:0:
424,200,12800,1,6,1:2:0:0:
384,312,13010,5,14,1:3:0:0:
368,304,13115,2,0,B|344:312|344:312|356:236,1,100,0|0,0:0|0:0,0:0:0:0:
340,228,13430,2,0,B|292:212|292:212|224:216,1,100,8|4,0:0|3:0,0:0:0:0:
136,268,13850,1,4,3:0:0:0:
136,268,14061,1,2,1:2:0:0:
84,160,14271,1,6,1:2:0:0:
84,160,14481,1,6,1:2:0:0:
148,60,14691,5,6,1:0:0:0:
148,60,14796,2,0,P|196:68|256:52,1,100,0|2,1:0|1:0,0:0:0:0:
308,16,15111,2,0,P|320:64|216:128,1,150,0|0,0:0|1:0,0:0:0:0:
220,144,15532,1,2,1:1:0:0:
200,176,15637,1,2,1:0:0:0:
212,212,15742,2,0,P|204:252|120:268,1,100,2|0,1:0|1:0,0:0:0:0:
80,192,16162,1,0,1:0:0:0:
80,192,16267,1,0,1:0:0:0:
80,192,16373,5,4,1:2:0:0:
80,192,16478,2,0,P|100:148|164:116,1,100,4|4,1:2|1:2,0:0:0:0:
200,132,16793,2,0,B|248:148|248:148|296:132,1,100,4|4,1:2|1:2,0:0:0:0:
376,200,17213,1,4,1:2:0:0:
376,200,17318,2,0,P|356:244|292:276,1,100,4|4,1:2|1:2,0:0:0:0:
256,260,17633,2,0,B|208:244|208:244|160:260,1,100,4|4,1:2|1:2,0:0:0:0:
96,372,18054,5,0,1:0:0:0:
96,372,18264,1,0,0:0:0:0:
208,332,18474,1,0,1:0:0:0:
208,332,18684,1,0,0:0:0:0:
320,292,18894,2,0,B|372:292|372:292|408:252,1,100,0|0,1:0|1:0,0:0:0:0:
380,200,19209,2,0,B|328:200|328:200|292:240,1,100,0|0,0:0|1:2,0:0:0:0:
260,252,19525,1,0,0:0:0:0:
224,236,19630,1,0,0:0:0:0:
208,200,19735,6,0,L|200:148,3,50,8|8|0|8,0:0|0:0|0:0|0:0,0:0:0:0:
192,92,20155,2,0,B|148:112|148:112|96:96,1,100,0|4,0:0|1:2,0:0:0:0:
52,240,20575,5,14,1:3:0:0:
52,240,20680,2,0,B|68:340|68:340|88:296,1,150.000005722046,0|0,0:0|0:0,0:0:0:0:
131,228,20995,2,0,P|107:184|12:172,1,150.000005722046,8|4,0:0|3:0,0:0:0:0:
28,148,21310,1,0,0:0:0:0:
44,128,21415,6,0,P|64:104|92:80,3,50,4|0|2|0,3:0|0:0|1:2|0:0,0:0:0:0:
144,124,21836,2,0,P|175:104|200:76,3,50,6|0|6|0,1:2|0:0|1:2|0:0,0:0:0:0:
224,32,22256,5,14,1:3:0:0:
224,32,22361,2,0,B|280:56|336:36|336:36|292:76,1,150.000005722046,0|0,0:0|0:0,0:0:0:0:
264,124,22676,2,0,P|292:184|364:136,1,150.000005722046,8|4,0:0|3:0,0:0:0:0:
368,136,22991,1,0,0:0:0:0:
376,112,23096,6,0,L|448:104,3,50,4|0|2|2,3:0|0:0|1:2|0:1,0:0:0:0:
377,63,23517,2,0,L|328:60,3,50,6|2|6|0,1:2|0:1|1:2|0:0,0:0:0:0:
288,52,23937,5,6,1:0:0:0:
288,52,24042,2,0,B|232:56|184:40|184:40|164:60|224:112,1,150.000005722046,0|2,1:0|1:0,0:0:0:0:
224,144,24357,2,0,P|192:205|126:184,1,150.000005722046,0|2,0:0|1:0,0:0:0:0:
128,224,24673,1,0,1:0:0:0:
129,264,24778,1,2,1:1:0:0:
130,304,24883,1,2,1:0:0:0:
132,344,24988,2,0,P|196:356|284:348,1,150.000005722046,2|0,1:0|1:0,0:0:0:0:
315,335,25303,1,2,1:2:0:0:
348,316,25408,1,0,1:0:0:0:
381,297,25513,1,0,1:0:0:0:
414,278,25618,5,4,1:2:0:0:
448,261,25723,2,0,B|456:188|456:188|460:152|444:128|424:125,1,150.000005722046,4|4,1:2|1:2,0:0:0:0:
382,61,26039,2,0,P|347:123|380:188,1,150.000005722046,4|4,1:2|1:2,0:0:0:0:
363,352,26459,5,4,1:2:0:0:
328,368,26564,2,0,B|254:375|254:375|218:379|200:368|192:344,1,150.000005722046,4|4,1:2|1:2,0:0:0:0:
128,302,26880,2,0,P|190:266|254:299,1,150.000005722046,4|0,1:2|0:0,0:0:0:0:
396,248,27300,5,0,1:0:0:0:
396,248,27510,1,0,0:0:0:0:
436,100,27720,1,0,1:0:0:0:
436,100,27930,1,0,0:0:0:0:
288,108,28140,2,0,B|216:88|216:88|144:120,1,150.000005722046,0|0,1:0|1:0,0:0:0:0:
100,176,28455,2,0,B|172:196|172:196|244:164,1,150.000005722046,0|0,0:0|1:2,0:0:0:0:
256,146,28771,1,0,0:0:0:0:
272,127,28876,1,0,0:0:0:0:
288,108,28981,6,0,L|376:96,3,75.0000028610231,8|8|0|8,0:0|0:0|0:0|0:0,0:0:0:0:
428,80,29401,2,0,P|384:152|396:276,1,150.000005722046,0|4,0:0|1:2,0:0:0:0:
377,215,29716,1,0,0:0:0:0:
377,215,29821,5,4,0:0:0:0:
256,192,29926,12,0,32342,0:0:0:0:
