osu file format v14

[General]
AudioFilename: Encounter! (Many things).mp3
AudioLeadIn: 2000
PreviewTime: 400
Countdown: 0
SampleSet: Soft
StackLeniency: 0.7
Mode: 0
LetterboxInBreaks: 0
WidescreenStoryboard: 0

[Editor]
Bookmarks: 1906
DistanceSpacing: 1
BeatDivisor: 8
GridSize: 4
TimelineZoom: 1.7

[Metadata]
Title:Shisen! Karate Ou
TitleUnicode:視線!からておう
Artist:Hitomi Sato
ArtistUnicode:佐藤仁美
Creator:Baraatje123
Version:Distortion of Time and Space
Source:ポケットモンスター ダイヤモンド・パール
Tags:lepidopodus Irreversible EvilElvis Poketto Monsutā Daiyamondo & Pāru Pocket Monsters Nintendo Pokémon Pokemon Diamond Pearl Platinum Version Psychic Martial Arts Police Officer Black Belt
BeatmapID:748445
BeatmapSetID:338295

[Difficulty]
HPDrainRate:8.5
CircleSize:4.5
OverallDifficulty:9
ApproachRate:9.5
SliderMultiplier:3
SliderTickRate:4

[Events]
//Background and Video events
0,0,"Background.jpg",0,0
//Break Periods
//Storyboard Layer 0 (Background)
//Storyboard Layer 1 (Fail)
//Storyboard Layer 2 (Pass)
//Storyboard Layer 3 (Foreground)
//Storyboard Sound Samples

[TimingPoints]
400.984219565645,420.31523642732,4,2,1,80,1,0
11329,420.31523642732,4,2,1,80,1,0
20575,420.31523642732,4,2,1,80,1,0
20575,-66.6666666666667,4,2,1,80,0,1
27300,-200,4,2,1,80,0,1
28981,-66.6666666666667,4,2,1,80,0,1
29821,420.31523642732,4,2,1,80,1,0
29821,-200,4,2,1,35,0,0
30241,-200,4,2,1,30,0,0
30661,-200,4,2,1,25,0,0
31081,-200,4,2,1,20,0,0
31502,-200,4,2,1,15,0,0
31922,-200,4,2,1,10,0,0
32342,-200,4,2,1,5,0,0

[Colours]
Combo1 : 255,0,0
Combo2 : 0,210,210
Combo3 : 137,245,175
Combo4 : 255,128,64
Combo5 : 255,117,255
Combo6 : 0,0,234

[HitObjects]
196,100,400,5,2,0:0:0:0:
315,110,506,1,2,0:0:0:0:
180,116,611,1,0,0:0:0:0:
328,132,716,2,8,P|401:129|459:83,1,150,0|2,0:0|0:0,0:0:0:0:
459,84,1031,2,8,B|467:112|467:112|447:180,1,75,0|0,0:0|0:0,0:0:0:0:
312,304,1241,5,8,0:0:0:0:
254,207,1346,1,8,3:0:0:0:
243,319,1451,1,0,0:0:0:0:
316,234,1556,1,8,0:0:0:0:
206,258,1661,2,0,P|184:204|252:136,1,150,0|4,0:0|1:0,0:0:0:0:
328,132,1977,1,0,0:0:0:0:
172,148,2082,6,0,P|132:136|84:88,2,75,14|0|14,1:3|0:0|1:3,0:0:0:0:
328,132,2397,1,0,0:0:0:0:
236,138,2502,2,0,P|186:189|206:258,1,150,8|4,0:0|3:0,0:0:0:0:
316,234,2817,1,0,0:0:0:0:
412,168,2922,1,4,3:0:0:0:
416,176,3027,1,0,0:0:0:0:
420,184,3133,1,2,1:2:0:0:
424,192,3238,1,0,0:0:0:0:
428,200,3343,1,6,1:2:0:0:
436,168,3448,1,0,0:0:0:0:
444,136,3553,1,6,1:2:0:0:
452,104,3658,1,0,0:0:0:0:
460,72,3763,6,0,L|480:-4,2,75,14|0|14,1:3|0:0|1:3,0:0:0:0:
348,104,4078,1,0,0:0:0:0:
268,184,4183,2,0,P|236:132|264:32,1,150,8|4,0:0|3:0,0:0:0:0:
348,104,4499,1,0,0:0:0:0:
312,240,4604,1,4,3:0:0:0:
303,244,4709,1,0,0:0:0:0:
294,247,4814,1,2,1:2:0:0:
285,250,4919,1,2,0:1:0:0:
276,251,5024,1,6,1:2:0:0:
267,252,5129,1,2,0:1:0:0:
257,251,5234,1,6,1:2:0:0:
248,250,5339,1,0,0:0:0:0:
240,248,5444,6,0,P|192:240|140:256,1,75,6|0,1:0|1:0,0:0:0:0:
96,304,5654,1,0,0:0:0:0:
204,192,5760,2,0,B|208:156|184:88|184:88|208:132,1,150,2|0,1:0|0:0,0:0:0:0:
228,320,6075,2,0,B|232:356|232:356|264:384,1,75,2|0,1:0|1:0,0:0:0:0:
360,272,6285,1,2,1:1:0:0:
228,320,6390,2,0,B|192:324|192:324|164:356,1,75,2|2,1:0|1:0,0:0:0:0:
112,316,6600,2,0,B|160:264|160:264|252:252,1,150,0|2,0:0|1:2,0:0:0:0:
360,272,6915,1,0,1:0:0:0:
360,272,7020,1,0,1:0:0:0:
376,128,7126,5,4,1:2:0:0:
280,80,7231,2,0,P|244:68|184:68,1,75,4|0,1:2|0:0,0:0:0:0:
386,154,7441,5,4,1:2:0:0:
302,87,7546,2,0,P|270:68|211:55,1,75,4|0,1:2|0:0,0:0:0:0:
386,154,7756,2,0,P|418:173|477:185,1,75,4|0,1:2|0:0,0:0:0:0:
303,87,7966,5,4,1:2:0:0:
234,169,8071,2,0,P|205:194|151:219,1,75,4|0,1:2|0:0,0:0:0:0:
302,58,8281,5,4,1:2:0:0:
252,153,8386,2,0,P|229:183|181:219,1,75,4|0,1:2|0:0,0:0:0:0:
302,58,8597,2,0,P|324:27|372:-8,1,75,4|0,1:2|0:0,0:0:0:0:
172,136,8807,6,8,L|84:132,1,75,0|0,1:0|0:0,0:0:0:0:
184,160,9017,2,8,L|96:156,1,75,0|0,0:0|0:0,0:0:0:0:
196,184,9227,2,8,L|108:180,1,75,0|0,1:0|0:0,0:0:0:0:
208,208,9437,2,8,L|120:204,1,75,0|0,0:0|0:0,0:0:0:0:
292,232,9647,2,8,L|380:228,1,75,0|0,1:0|0:0,0:0:0:0:
232,256,9858,1,0,1:0:0:0:
232,256,9963,2,8,L|144:252,1,75,0|0,0:0|0:0,0:0:0:0:
296,296,10173,1,0,1:2:0:0:
296,296,10278,2,8,L|384:292,1,75,0|0,0:0|0:0,0:0:0:0:
204,328,10488,5,8,0:0:0:0:
101,232,10593,1,8,0:0:0:0:
197,129,10698,1,0,0:0:0:0:
300,225,10803,1,8,0:0:0:0:
101,305,10908,2,0,P|45:281|48:184,1,150,0|4,0:0|1:2,0:0:0:0:
120,116,11224,1,0,0:0:0:0:
244,172,11329,6,0,P|276:144|288:88,2,75,14|0|14,1:3|0:0|1:3,0:0:0:0:
168,236,11644,1,0,0:0:0:0:
288,288,11749,2,0,B|320:308|320:308|356:296|356:296|396:316|440:308,1,150,8|4,0:0|3:0,0:0:0:0:
408,216,12064,1,0,0:0:0:0:
360,140,12169,1,4,3:0:0:0:
352,120,12274,1,0,0:0:0:0:
344,100,12379,1,2,1:2:0:0:
336,80,12484,1,0,0:0:0:0:
328,60,12589,1,6,1:2:0:0:
316,112,12695,1,0,0:0:0:0:
304,164,12800,1,6,1:2:0:0:
292,216,12905,1,0,0:0:0:0:
280,268,13010,6,0,L|272:356,2,75,14|0|14,1:3|0:0|1:3,0:0:0:0:
224,164,13325,1,0,0:0:0:0:
144,244,13430,2,0,P|116:200|144:84,1,150,8|4,0:0|3:0,0:0:0:0:
224,164,13745,1,0,0:0:0:0:
200,300,13850,1,4,3:0:0:0:
184,310,13955,1,0,0:0:0:0:
167,318,14061,1,2,1:2:0:0:
149,321,14166,1,0,0:0:0:0:
130,319,14271,1,6,1:2:0:0:
112,314,14376,1,2,0:1:0:0:
96,304,14481,1,6,1:2:0:0:
82,291,14586,1,0,0:0:0:0:
72,276,14691,6,0,L|56:376,1,75,6|0,1:0|1:0,0:0:0:0:
144,248,14901,1,0,0:0:0:0:
144,124,15006,2,0,B|164:136|164:136|148:104|156:72|176:40|200:32|224:28,1,150,2|0,1:0|0:0,0:0:0:0:
356,164,15321,1,2,1:0:0:0:
232,104,15427,1,0,1:0:0:0:
356,164,15532,6,0,L|409:78,1,75,2|2,1:1|1:0,0:0:0:0:
278,161,15742,1,2,1:0:0:0:
230,275,15847,2,0,B|216:256|216:256|218:291|198:318|167:339|142:337|118:332,1,150,0|0,0:0|1:2,0:0:0:0:
141,259,16162,1,0,1:0:0:0:
141,259,16267,1,0,1:0:0:0:
312,288,16372,5,4,1:2:0:0:
416,216,16477,2,0,L|416:112,1,75,4|0,1:2|0:0,0:0:0:0:
324,292,16688,5,4,1:2:0:0:
440,243,16793,2,0,L|461:141,1,75,4|0,1:2|0:0,0:0:0:0:
324,292,17003,2,0,L|302:393,1,75,4|0,1:2|0:0,0:0:0:0:
200,288,17213,5,4,1:2:0:0:
96,216,17318,2,0,L|96:112,1,75,4|0,1:2|0:0,0:0:0:0:
188,292,17528,5,4,1:2:0:0:
72,243,17633,2,8,L|50:141,1,75,4|0,1:2|0:0,0:0:0:0:
188,292,17843,2,8,L|209:393,1,75,4|0,1:2|0:0,0:0:0:0:
224,144,18054,6,8,L|200:64,1,75,0|0,1:0|0:0,0:0:0:0:
252,152,18264,2,8,L|228:72,1,75,0|0,0:0|0:0,0:0:0:0:
280,160,18474,2,8,L|256:80,1,75,0|0,1:0|0:0,0:0:0:0:
308,168,18684,2,8,L|284:88,1,75,0|0,0:0|0:0,0:0:0:0:
368,220,18894,2,8,L|344:300,1,75,0|0,1:0|0:0,0:0:0:0:
364,136,19104,1,0,1:0:0:0:
364,136,19209,2,8,L|340:56,1,75,0|0,0:0|0:0,0:0:0:0:
448,188,19420,1,0,1:2:0:0:
448,188,19525,2,8,L|424:268,1,75,0|0,0:0|0:0,0:0:0:0:
308,168,19735,5,8,0:0:0:0:
212,65,19840,1,8,0:0:0:0:
109,161,19945,1,0,0:0:0:0:
205,263,20050,1,8,0:0:0:0:
284,64,20155,2,8,P|256:8|156:20,1,150,0|4,0:0|1:2,0:0:0:0:
96,84,20470,1,0,0:0:0:0:
84,180,20575,6,0,B|88:232|88:232|76:292,2,112.500004291535,14|0|14,1:3|0:0|1:3,0:0:0:0:
172,128,20890,1,0,0:0:0:0:
236,208,20995,2,0,B|252:212|268:200|268:200|276:220|276:220|296:228|296:228|304:248|304:248|344:240|376:272|379:305|356:336,1,225.000008583069,8|4,0:0|3:0,0:0:0:0:
204,308,21310,1,0,0:0:0:0:
172,128,21415,1,4,3:0:0:0:
188,116,21520,1,0,0:0:0:0:
204,104,21625,1,2,1:2:0:0:
220,92,21730,1,0,0:0:0:0:
236,80,21835,1,6,1:2:0:0:
220,144,21941,1,0,0:0:0:0:
204,208,22046,1,6,1:2:0:0:
188,272,22151,1,0,0:0:0:0:
172,336,22256,6,0,P|216:332|252:276,2,112.500004291535,14|0|14,1:3|0:0|1:3,0:0:0:0:
60,292,22571,1,0,0:0:0:0:
296,212,22676,2,0,B|320:204|320:204|336:212|336:212|348:204|348:204|368:212|368:212|400:208|400:208|420:232|420:232|460:220|456:176|420:144,1,225.000008583069,8|4,0:0|3:0,0:0:0:0:
352,92,22991,1,0,0:0:0:0:
236,80,23096,1,4,3:0:0:0:
200,88,23201,1,0,0:0:0:0:
164,96,23307,1,2,1:2:0:0:
128,104,23412,1,2,0:1:0:0:
92,112,23517,2,8,L|96:228,1,112.500004291535,6|2,1:2|0:1,0:0:0:0:
299,324,23727,2,8,L|295:208,1,112.500004291535,6|0,1:2|0:0,0:0:0:0:
352,92,23937,6,0,B|368:76|368:76|356:126|388:144|388:144|424:144,2,112.500004291535,6|0|0,1:0|1:0|0:0,0:0:0:0:
412,216,24252,2,8,B|404:256|368:280|368:280|376:288|376:288|368:296|368:296|376:304|376:304|368:312|368:312|404:328|432:368|464:352,1,225.000008583069,2|0,1:0|0:0,0:0:0:0:
335,208,24567,2,0,P|299:192|215:196,1,112.500004291535,2|0,1:0|1:0,0:0:0:0:
160,292,24778,6,0,B|144:308|144:308|155:257|124:240|124:240|88:240,2,112.500004291535,2|2|2,1:1|1:0|1:0,0:0:0:0:
100,168,25093,2,8,B|108:128|144:104|144:104|136:96|136:96|144:88|144:88|136:80|136:80|144:72|144:72|108:56|80:16|48:32,1,225.000008583069,0|2,0:0|1:2,0:0:0:0:
177,176,25408,2,0,P|213:192|297:188,1,112.500004291535,0|0,1:0|1:0,0:0:0:0:
428,128,25618,5,4,1:2:0:0:
416,284,25723,2,0,B|392:348|392:348|352:336|376:288,1,112.500004291535,4|0,1:2|0:0,0:0:0:0:
440,178,25934,5,4,1:2:0:0:
367,316,26039,2,0,B|319:365|319:365|287:338|328:304,1,112.500004291535,4|0,1:2|0:0,0:0:0:0:
440,178,26249,2,0,B|487:128|487:128|519:155|478:189,1,112.500004291535,4|0,1:2|0:0,0:0:0:0:
308,232,26459,5,4,1:2:0:0:
176,176,26564,2,0,P|168:144|188:56,1,112.500004291535,4|0,1:2|0:0,0:0:0:0:
200,272,26774,5,4,1:2:0:0:
336,176,26879,2,0,P|344:144|324:56,1,112.500004291535,4|0,1:2|0:0,0:0:0:0:
200,272,27089,2,0,P|192:304|212:392,1,112.500004291535,4|0,1:2|0:0,0:0:0:0:
336,176,27300,6,8,L|372:152,1,37.5,0|0,1:0|0:0,0:0:0:0:
356,196,27510,2,8,L|392:172,1,37.5,0|0,0:0|0:0,0:0:0:0:
376,216,27720,2,8,L|412:192,1,37.5,0|0,1:0|0:0,0:0:0:0:
396,236,27930,2,8,L|432:212,1,37.5,0|0,0:0|0:0,0:0:0:0:
416,256,28140,2,8,L|452:232,1,37.5,0|0,1:0|0:0,0:0:0:0:
452,144,28350,1,0,1:0:0:0:
452,144,28455,2,8,L|413:124,1,37.5,0|0,0:0|0:0,0:0:0:0:
337,168,28666,1,0,1:2:0:0:
337,168,28771,2,8,L|339:211,1,37.5,0|0,0:0|0:0,0:0:0:0:
288,296,28981,5,8,0:0:0:0:
132,240,29086,1,8,0:0:0:0:
288,296,29191,1,0,0:0:0:0:
132,240,29296,1,8,0:0:0:0:
288,296,29401,2,8,B|304:328|300:368|300:368|308:292|376:280|420:304,1,225.000008583069,0|4,0:0|1:2,0:0:0:0:
376,368,29716,1,0,0:0:0:0:
352,252,29821,5,4,0:0:0:0:
256,192,29926,12,0,32342,0:0:0:0:
