osu file format v9

[General]
AudioFilename: battle-arceus.mp3
AudioLeadIn: 0
PreviewTime: -1
Countdown: 0
SampleSet: Normal
StackLeniency: 0.7
Mode: 0
LetterboxInBreaks: 1

[Editor]
DistanceSpacing: 0.8
BeatDivisor: 4
GridSize: 32

[Metadata]
Title:Arceus battle theme
Artist:Hitomi Sato
Creator:zozozofun
Version:Ultra Ball
Source:Pokemon Diamond Pearl Platinum
Tags:

[Difficulty]
HPDrainRate:7
CircleSize:6
OverallDifficulty:7
ApproachRate:7
SliderMultiplier:2.4
SliderTickRate:2

[Events]
//Background and Video events
0,0,"Arceus.png"
//Break Periods
2,6679,8780
//Storyboard Layer 0 (Background)
//Storyboard Layer 1 (Fail)
//Storyboard Layer 2 (Pass)
//Storyboard Layer 3 (Foreground)
//Storyboard Sound Samples
//Background Colour Transformations
3,100,163,162,255

[TimingPoints]
3290,800,4,1,0,100,1,0
3880,-100,4,1,0,71,0,0
4280,-100,4,1,0,50,0,0
4680,-100,4,1,0,31,0,0
5080,800,4,1,0,31,1,0
5080,800,4,1,0,31,1,0
5080,-100,4,1,0,15,0,0
5880,-100,4,1,0,100,0,0
6680,-100,4,1,0,100,0,0
10080,-100,4,1,0,19,0,0
10880,-100,4,1,0,100,0,0
11680,-100,4,1,0,20,0,0
12480,-100,4,1,0,100,0,0
13280,-100,4,1,0,19,0,0
14080,-100,4,1,0,100,0,0
15280,-100,4,1,0,30,0,0
15680,-100,4,1,0,100,0,0

[Colours]
Combo1 : 177,131,131
Combo2 : 230,230,230
Combo3 : 255,255,128
Combo4 : 0,128,64

[HitObjects]
256,32,3290,2,0,B|256:192|256:192,1,120
224,160,4090,1,0
224,224,4490,1,0
288,224,4890,1,0
288,160,5280,1,0
256,192,5680,1,0
256,128,6080,6,0,B|384:128|384:128,1,120,0|4
32,32,9680,5,8
256,32,10480,1,0
480,32,11280,1,8
256,192,12080,1,0
32,352,12880,1,8
256,352,13680,1,0
480,352,14480,1,8
256,192,15280,1,0
256,192,16080,5,0
320,192,16480,2,0,B|320:256|320:256,2,60
320,128,17280,1,0
288,128,17480,1,0
256,128,17680,1,4
96,128,18080,6,0,B|96:192|96:192,1,60
96,224,18480,1,0
128,224,18680,1,0
160,224,18880,2,0,B|224:224|224:224,2,60,0|0|4
160,128,19680,6,0,C|256:128|256:128,2,60
160,256,20480,6,0,B|224:256|224:256,2,60,0|0|4
96,192,21280,5,0
128,192,21480,1,0
160,192,21680,1,0
192,192,21880,1,0
160,192,22080,1,0
128,192,22280,1,0
96,192,22480,1,4
96,128,22880,6,0,B|96:64|96:64,1,60,0|0
128,64,23280,1,0
160,64,23480,1,0
192,64,23680,1,0
224,64,23880,1,0
256,64,24080,2,0,B|256:128|256:128,1,60
256,160,24480,2,0,B|256:256|256:224|256:224,1,60
255,219,24880,1,0
256,256,25080,1,0
256,288,25280,2,4,B|320:288|320:288,1,60
352,288,25680,5,0
352,224,26080,1,0
352,192,26280,1,0
352,160,26480,1,0
352,128,26680,1,0
352,96,26880,1,0
352,64,27080,2,0,B|256:64|288:64|288:64,1,60
256,64,27480,2,0,B|160:96|288:224|288:224,1,180
320,224,28280,1,0
352,224,28480,2,4,B|416:224|416:224,1,60
413,186,28880,5,0
320,192,29280,2,0,B|224:192|224:192,2,60
320,96,30080,2,0,B|448:96|448:96,1,120
448,160,30880,5,0
448,192,31080,1,0
448,192,31280,2,0,B|448:256|448:256,1,60
448,288,31680,1,0
416,288,31880,1,0
384,288,32080,5,0
320,256,32480,2,0,B|288:320|352:352|352:352,2,60
320,256,33080,2,0,B|352:256|384:256|352:224|352:224,1,60
320,224,33480,1,0
320,192,33680,1,0
320,128,34080,6,0,B|256:128|256:128,1,60
224,128,34480,1,0
192,128,34680,1,0
160,128,34880,6,0,B|0:192|224:352|384:288|384:288,2,360
160,128,37480,1,0
352,128,38080,2,0,B|352:288|352:288,2,120
384,128,39080,2,0,B|480:128|448:32|128:0|64:96|-32:192|256:128|256:128,1,540
256,128,41280,1,0
256,128,41680,1,0
320,64,42080,6,0,B|320:128|320:128,1,60
320,160,42480,1,0
192,64,42880,2,0,B|192:128|192:128,1,60
192,160,43280,1,0
256,192,43680,5,0
256,224,43880,1,0
256,256,44080,1,0
256,288,44280,1,0
256,256,44480,1,0
256,224,44680,1,0
256,192,44880,5,0
192,288,45280,2,0,B|352:288|352:288,2,120
160,288,46280,1,0
128,288,46480,1,0
32,224,46880,5,0
64,192,47080,1,0
96,160,47280,1,0
128,128,47480,1,0
160,96,47680,2,0,B|256:32|416:32|512:192|512:192,2,360
128,96,50280,2,0,B|128:288|128:288,1,180
224,288,51280,1,0
416,288,51880,2,0,B|416:64|192:64|192:64,2,300
416,288,54080,1,0
416,288,54480,1,0
320,288,54880,5,0
288,288,55080,1,0
256,288,55280,1,0
192,288,55680,1,0
224,288,55880,1,0
256,288,56080,1,0
192,160,56480,5,0
192,128,56680,1,0
192,96,56880,1,0
224,96,57080,1,0
256,96,57280,1,0
256,128,57480,1,0
256,160,57680,5,0
256,224,58080,1,0
224,224,58280,1,0
192,224,58480,1,0
128,224,58880,1,0
128,192,59080,1,0
128,160,59280,1,0
256,192,59680,6,0,B|256:128|256:128,3,60
256,96,60480,1,0
256,64,60680,1,0
224,38,60880,2,0,B|448:166|416:326|416:326,1,360
416,320,62480,6,0,B|32:320|32:320,1,360
56,320,64080,6,0,B|56:160|216:0|312:64|312:64,1,360
261,58,65680,6,0,B|261:154|261:154|165:154|165:154|165:282|165:282,1,300
214,265,66880,1,0
209,102,67280,1,0
64,64,70080,6,0,L|64:161|64:161,1,60
64,173,70480,1,0
