osu file format v9

[General]
AudioFilename: battle-arceus.mp3
AudioLeadIn: 0
PreviewTime: -1
Countdown: 0
SampleSet: Normal
StackLeniency: 0.7
Mode: 0
LetterboxInBreaks: 1

[Editor]
DistanceSpacing: 0.8
BeatDivisor: 2
GridSize: 32

[Metadata]
Title:Arceus battle theme
Artist:Hitomi Sato
Creator:zozozofun
Version:PokeBall
Source:Pokemon Pearl Platinum Diamond
Tags:Legendary God Ancient Dialga Palkia Judgement

[Difficulty]
HPDrainRate:3
CircleSize:4
OverallDifficulty:3
ApproachRate:3
SliderMultiplier:1.5
SliderTickRate:2

[Events]
//Background and Video events
0,0,"Arceus.png"
//Break Periods
2,6689,8250
//Storyboard Layer 0 (Background)
//Storyboard Layer 1 (Fail)
//Storyboard Layer 2 (Pass)
//Storyboard Layer 3 (Foreground)
//Storyboard Sound Samples
//Background Colour Transformations
3,100,163,162,255

[TimingPoints]
3290,800,4,1,0,100,1,0

[Colours]
Combo1 : 185,105,91
Combo2 : 218,221,210
Combo3 : 255,255,128
Combo4 : 0,128,0

[HitObjects]
256,32,3290,2,0,C|256:128|256:128,1,75,0|8
256,352,6090,2,0,C|256:256|256:256,1,75,0|4
256,192,9690,5,0
32,32,11290,1,0
256,192,12890,1,0
480,32,14490,1,0
160,352,16090,5,0
96,352,16490,2,8,B|0:352|0:352,1,75
32,288,17290,2,0,B|128:288|128:288,1,75,0|8
160,288,18090,5,0
224,288,18490,1,0
288,288,18890,1,0
352,288,19290,1,4
416,288,19690,6,0,B|416:192|416:192,1,75
352,224,20490,2,0,C|352:326|352:326,1,75
288,288,21290,2,0,C|64:288|64:288,1,225,0|4
64,352,22890,5,0
128,352,23290,2,0,B|128:256|128:256,2,75
192,352,24490,1,8
256,352,24890,1,0
256,288,25290,1,8
192,288,25690,1,4
128,288,26090,6,0,C|128:64|128:64,1,225
192,64,27690,2,0,B|288:64|288:64,3,75,0|0|0|4
266,64,29290,5,0
320,64,29690,1,0
384,64,30090,1,0
384,64,30490,1,0
384,64,30890,2,0,B|480:64|480:64,1,75
458,65,31690,2,0,B|458:161|458:161,1,75,0|4
458,139,32490,5,0
401,141,32890,1,0
341,142,33290,1,0
340,202,33690,5,0
279,203,34090,1,0
224,204,34490,1,0
225,262,34890,2,2,C|385:262|385:262,1,150
444,288,36090,6,2,C|507:243|479:106|479:106,1,225
479,104,37690,2,0,C|383:104|383:104,1,75
345,106,38490,2,8,C|345:234|345:234,2,75
288,32,40090,2,0,B|160:32|64:224|64:224,1,300
63,270,42090,5,0
127,267,42490,1,0
192,264,42890,1,0
256,256,43290,1,4
256,192,43690,6,0,B|160:192|160:192,1,75
128,192,44490,2,0,B|160:96|160:96,1,75,0|4
192,96,45290,5,0
256,96,45690,1,0
322,97,46090,1,0
320,160,46490,1,0
320,224,46890,2,0,B|192:224|192:224,1,75
224,224,47690,6,2,C|96:224|96:128|192:96|96:32|96:32,1,450
0,32,50490,2,0,B|0:192|0:192,1,150
0,271,51690,2,0,B|128:271|192:175|192:175,2,150
0,192,54090,1,0
0,192,54490,1,0
84,190,54890,5,0
85,191,55290,1,0
160,192,55690,1,0
160,192,56090,1,0
224,192,56490,2,0,B|320:160|320:160,1,75
296,169,57290,2,0,B|360:254|360:254,1,75,0|4
352,288,58090,5,0
352,286,58490,1,0
268,288,58890,5,0
269,288,59290,1,0
191,289,59690,2,0,B|84:289|84:289,1,75
117,289,60490,1,0
64,224,60890,6,4,B|64:96|192:32|192:256|320:96|320:96,4,300
256,32,70090,6,0,B|256:128|256:128,1,75,0|4
