osu file format v9

[General]
AudioFilename: battle-arceus.mp3
AudioLeadIn: 0
PreviewTime: -1
Countdown: 0
SampleSet: Soft
StackLeniency: 0.7
Mode: 0
LetterboxInBreaks: 1

[Editor]
DistanceSpacing: 0.8
BeatDivisor: 8
GridSize: 8

[Metadata]
Title:Arceus battle theme
Artist:Hitomi Sato
Creator:zozozofun
Version:Master Ball
Source:Pokemon Diamond Pearl Platinum
Tags:

[Difficulty]
HPDrainRate:7
CircleSize:6
OverallDifficulty:8
ApproachRate:8
SliderMultiplier:2.8
SliderTickRate:2

[Events]
//Background and Video events
0,0,"Arceus.png"
//Break Periods
2,6690,8940
//Storyboard Layer 0 (Background)
//Storyboard Layer 1 (Fail)
//Storyboard Layer 2 (Pass)
//Storyboard Layer 3 (Foreground)
//Storyboard Sound Samples
//Background Colour Transformations
3,100,163,162,255

[TimingPoints]
3290,800,4,1,0,60,1,0
3880,-100,4,2,0,40,0,0
6080,-100,4,1,0,60,0,0
9880,-100,4,2,0,40,0,0
11280,-100,4,1,0,60,0,0
11480,-100,4,2,0,40,0,0
12880,-100,4,1,0,60,0,0
13080,-100,4,2,0,40,0,0
14480,-100,4,1,0,60,0,0
14680,-100,4,2,0,40,0,0
16080,-100,4,1,0,60,0,0
16480,-100,4,1,0,40,0,0
17680,-100,4,1,0,60,0,0
18080,-100,4,1,0,40,0,0
19280,-100,4,1,0,60,0,0
19680,-100,4,1,0,40,0,0
20880,-100,4,1,0,60,0,0
21280,-100,4,1,0,40,0,0
22480,-100,4,1,0,70,0,0
22680,-100,4,1,0,50,0,0
24080,-100,4,1,0,70,0,0
24280,-100,4,1,0,50,0,0
25680,-100,4,1,0,70,0,0
25880,-100,4,1,0,50,0,0
27280,-100,4,1,0,70,0,0
27480,-100,4,1,0,50,0,0
28880,-100,4,1,0,70,0,0
29280,-100,4,1,0,50,0,0
30480,-100,4,1,0,70,0,0
30880,-100,4,1,0,50,0,0
32080,-100,4,1,0,70,0,0
32480,-100,4,1,0,50,0,0
33680,-100,4,1,0,70,0,0
34080,-100,4,1,0,50,0,0
34880,-100,4,1,0,70,0,0
42080,-100,4,1,0,50,0,0
43280,-100,4,1,0,70,0,0
43680,-100,4,1,0,50,0,0
44880,-100,4,1,0,70,0,0
45280,-100,4,1,0,50,0,0
46480,-100,4,1,0,70,0,0
46880,-100,4,1,0,50,0,0
47680,-100,4,1,0,70,0,0
54880,-100,4,1,0,50,0,0
56080,-100,4,1,0,70,0,0
56480,-100,4,1,0,50,0,0
57680,-100,4,1,0,70,0,0
58080,-100,4,1,0,50,0,0
59280,-100,4,1,0,70,0,0
59680,-100,4,1,0,50,0,0
60880,-100,4,1,0,70,0,0
60980,-100,4,2,0,50,0,0
62480,-100,4,1,0,70,0,0
62580,-100,4,2,0,50,0,0
64080,-100,4,1,0,70,0,0
64180,-100,4,2,0,50,0,0
65680,-100,4,1,0,70,0,0
65780,-100,4,2,0,50,0,0
66880,-100,4,1,0,50,0,0
67280,-100,4,1,0,70,0,0
70080,-100,4,1,0,50,0,0
70480,-100,4,1,0,70,0,0

[Colours]
Combo1 : 164,108,108
Combo2 : 225,225,225
Combo3 : 255,255,128
Combo4 : 0,128,64

[HitObjects]
224,32,3290,2,2,C|224:224,1,140,2|6
224,200,3890,1,0
224,240,4090,1,2
224,280,4290,1,0
272,280,4490,1,0
272,240,4690,1,0
272,200,4890,1,2
312,200,5090,1,0
352,200,5290,5,0
352,152,5490,1,0
352,112,5690,1,2
400,112,5890,1,0
400,112,6090,2,2,C|400:260|400:260,1,140,2|6
192,128,9690,5,4
192,168,9890,5,0
232,168,10090,1,2
232,120,10290,1,0
232,72,10490,1,0
272,72,10690,1,0
272,120,10890,1,2
272,168,11090,1,0
272,168,11290,5,4
320,168,11490,5,0
320,168,11690,1,2
368,168,11890,1,0
416,168,12090,1,0
416,216,12290,1,0
416,216,12490,1,2
368,216,12690,1,0
368,216,12890,5,4
368,264,13090,5,0
320,264,13290,1,2
320,264,13490,1,0
272,264,13690,1,0
224,264,13890,1,0
248,224,14090,1,2
200,224,14290,1,0
200,224,14490,5,4
200,176,14690,5,0
152,176,14890,1,2
104,176,15090,1,0
104,224,15290,1,0
104,272,15490,1,0
152,272,15690,1,2
256,168,16090,5,4
320,64,16490,1,0
384,128,16690,1,0
320,192,16890,1,8
184,64,17290,1,8
120,128,17490,1,0
184,192,17690,1,4
256,32,18090,5,8
256,64,18290,1,0
256,96,18490,1,0
256,128,18690,1,8
256,160,18890,1,8
256,192,19090,1,0
256,224,19290,1,4
160,288,19690,6,0,C|160:224|160:160|160:160,2,70
160,328,20290,1,0
128,328,20490,1,0
96,328,20690,1,0
96,296,20890,1,4
256,32,21290,5,8
224,64,21490,1,0
256,96,21690,1,0
288,64,21890,1,8
256,32,22090,1,8
224,64,22290,1,0
256,96,22490,5,4
288,128,22690,2,0,C|384:128|384:128,1,70,0|8
384,128,23090,1,0
384,160,23290,1,0
384,192,23490,1,0
352,192,23690,1,8
320,192,23890,1,8
288,192,24090,6,0,C|288:288|288:288,1,70,4|0
256,256,24490,1,8
224,256,24690,1,0
224,224,24890,1,0
192,224,25090,1,0
192,192,25290,1,8
160,192,25490,1,8
160,160,25690,1,4
160,128,25890,6,0,C|256:128|256:128,2,70,0|8|0
128,128,26490,1,0
128,160,26690,1,4
128,192,26890,1,8
160,192,27090,1,8
192,192,27290,1,4
224,192,27490,5,0
224,160,27690,1,8
224,128,27890,1,0
224,96,28090,1,0
224,64,28290,1,0
256,64,28490,1,8
288,64,28690,1,8
352,64,28890,5,4
352,160,29290,1,0
352,224,29490,1,0
352,288,29690,1,8
80,288,30090,1,8
80,224,30290,1,0
80,160,30490,1,4
256,32,30890,5,8
224,64,31090,1,0
256,96,31290,1,0
288,128,31490,1,8
256,160,31690,1,8
256,192,31890,1,0
256,224,32090,1,4
448,64,32490,5,0
448,192,32690,1,0
448,64,32890,1,8
64,64,33290,1,8
64,192,33490,1,0
64,64,33690,1,4
256,32,34090,5,8
256,96,34290,1,0
256,160,34490,1,0
256,224,34690,1,8
256,288,34890,6,0,C|448:288|448:128|448:128,1,350,10|0
448,138,36090,2,2,C|384:42|64:106|64:106,1,420,2|8
98,98,37490,1,2
96,320,38090,5,10
256,320,38490,2,2,B|416:288|480:96|480:96,3,280,6|2|2|0
256,32,41290,1,10
256,192,41690,1,4
160,96,42090,5,0
256,96,42290,1,0
352,96,42490,1,8
352,296,42890,1,8
256,296,43090,1,0
160,296,43290,1,4
192,192,43690,5,8
256,192,43890,1,0
320,192,44090,1,0
256,192,44290,1,8
192,192,44490,1,8
256,192,44690,1,0
256,192,44890,1,4
192,32,45290,5,0
256,32,45490,1,0
320,32,45690,1,8
320,352,46090,1,8
256,352,46290,1,0
192,352,46490,1,4
256,128,46890,5,8
192,192,47090,1,0
256,256,47290,1,0
320,192,47490,1,8
256,128,47690,6,2,C|320:96|480:320|384:320|384:320,2,420,10|2|8
256,128,50290,1,2
160,160,50890,2,2,C|160:320|160:320,2,140,8|6|8
160,128,51890,6,2,B|192:64|480:64|448:288|320:288|320:288,2,350,2|6|0
160,128,54090,1,2
160,32,54490,1,14
256,32,54890,6,8,B|256:128|256:128,2,70,0|0|8
256,352,55690,2,0,B|256:256|256:256,2,70,8|0|4
256,192,56490,5,8
352,128,56690,1,0
256,192,56890,1,0
352,256,57090,1,8
256,192,57290,1,8
152,192,57490,1,0
256,192,57690,1,4
416,64,58090,5,0
416,192,58290,1,0
416,320,58490,1,8
96,320,58890,1,8
96,192,59090,1,0
96,64,59290,1,4
248,32,59690,5,8
224,96,59890,1,0
256,160,60090,1,0
288,224,60290,1,8
256,288,60490,1,8
224,352,60690,1,0
160,352,60890,6,0,B|64:224|128:64|128:64,1,280,4|2
72,88,61890,1,0
72,40,62090,1,2
120,40,62290,1,0
121,84,62490,6,0,B|192:32|448:96|448:96,1,280,4|2
400,40,63490,1,0
448,40,63690,1,2
448,88,63890,1,0
400,88,64090,6,0,B|452:228|356:356|356:356,1,280,4|2
352,384,65090,1,0
312,384,65290,1,2
312,344,65490,1,0
352,350,65690,6,0,B|256:256|96:288|96:352|96:352,1,280,4|2
100,339,66690,1,0
96,256,66890,5,2
480,256,67290,1,2
256,128,70090,5,2
208,224,70290,1,0
312,224,70490,1,4
